×

¿Problemas para descargar con Mozilla, EDGE? Deshabilita la opción "Abrir vinculos en una pestaña nueva" tal como lo muestra ésta imagen.

Avengers Endgame (2019) BDRip 3D-SBS 1080p Latino

3.492 vistas

Información de Avengers Endgame (2019) BDRip 3D-SBS 1080p Latino

vengadores endgame 56373 poster

Datos de la película

  • Calidad: 1080p
  • Audio: Español Latino AC3 5.1 BLURAY - Ingles DTS 5.1 BLURAY
  • Subtitulos: Español Latino SRT- FORZADOS SRT
  • Resolución: 1920x808
  • Formato: MKV
  • Codec: H.264
  • Encoder: cinemaniahdd
  • Mediainfo: Clic para Mostrar Datos Ver
  • Avengers Endgame (2019) BDRip 3D-SBS 1080p Latino.mkv
    Format                      : Matroska
    Format version              : Version 4
    File size                   : 15.0 GiB
    Duration                    : 3 h 1 min
    Overall bit rate            : 11.9 Mb/s
    Movie name                  : Avengers Endgame (2019) BDRip 3D-SBS 1080p Latino
    Encoded date                : UTC 2019-08-23 01:28:06
    Writing application         : mkvmerge v35.0.0 ('All The Love In The World') 64-bit
    Writing library             : libebml v1.3.9 + libmatroska v1.5.2

    Video
    ID                          : 1
    Format                      : AVC
    Format/Info                 : Advanced Video Codec
    Format profile              : High@L4.1
    Format settings             : CABAC / 5 Ref Frames
    Format settings, CABAC      : Yes
    Format settings, ReFrames   : 5 frames
    Codec ID                    : V_MPEG4/ISO/AVC
    Duration                    : 3 h 1 min
    Bit rate                    : 9 710 kb/s
    Width                       : 1 920 pixels
    Height                      : 808 pixels
    Display aspect ratio        : 2.40:1
    Frame rate mode             : Constant
    Frame rate                  : 23.976 (24000/1001) FPS
    Color space                 : YUV
    Chroma subsampling          : 4:2:0
    Bit depth                   : 8 bits
    Scan type                   : Progressive
    Bits/(Pixel*Frame)          : 0.261
    Stream size                 : 12.3 GiB (82%)
    Title                       : CinemaniaHDD
    Writing library             : x264 core 157 r2969 d4099dd
    Encoding settings           : cabac=1 / ref=5 / deblock=1:-1:-1 / analyse=0x3:0x113 / me=umh / subme=8 / psy=1 / psy_rd=1.00:0.00 / mixed_ref=1 / me_range=16 / chroma_me=1 / trellis=2 / 8x8dct=1 / cqm=0 / deadzone=21,11 / fast_pskip=0 / chroma_qp_offset=-2 / threads=25 / lookahead_threads=4 / sliced_threads=0 / nr=0 / decimate=1 / interlaced=0 / bluray_compat=0 / constrained_intra=0 / bframes=5 / b_pyramid=2 / b_adapt=1 / b_bias=0 / direct=3 / weightb=1 / open_gop=0 / weightp=1 / keyint=250 / keyint_min=23 / scenecut=40 / intra_refresh=0 / rc_lookahead=40 / rc=2pass / mbtree=1 / bitrate=9710 / ratetol=1.0 / qcomp=0.60 / qpmin=0 / qpmax=69 / qpstep=4 / cplxblur=20.0 / qblur=0.5 / ip_ratio=1.40 / aq=1:1.00
    Default                     : Yes
    Forced                      : No

    Audio #1
    ID                          : 2
    Format                      : AC-3
    Format/Info                 : Audio Coding 3
    Commercial name             : Dolby Digital
    Codec ID                    : A_AC3
    Duration                    : 3 h 1 min
    Bit rate mode               : Constant
    Bit rate                    : 640 kb/s
    Channel(s)                  : 6 channels
    Channel layout              : L R C LFE Ls Rs
    Sampling rate               : 48.0 kHz
    Frame rate                  : 31.250 FPS (1536 SPF)
    Bit depth                   : 16 bits
    Compression mode            : Lossy
    Stream size                 : 829 MiB (5%)
    Title                       : Español latino [CinemaniaHDD]
    Language                    : Spanish
    Service kind                : Complete Main
    Default                     : Yes
    Forced                      : No

    Audio #2
    ID                          : 3
    Format                      : DTS
    Format/Info                 : Digital Theater Systems
    Codec ID                    : A_DTS
    Duration                    : 3 h 1 min
    Bit rate mode               : Constant
    Bit rate                    : 1 509 kb/s
    Channel(s)                  : 6 channels
    Channel layout              : C L R Ls Rs LFE
    Sampling rate               : 48.0 kHz
    Frame rate                  : 93.750 FPS (512 SPF)
    Bit depth                   : 24 bits
    Compression mode            : Lossy
    Stream size                 : 1.91 GiB (13%)
    Title                       : Inglés [CinemaniaHDD]
    Language                    : English
    Default                     : No
    Forced                      : No

    Text #1
    ID                          : 4
    Format                      : UTF-8
    Codec ID                    : S_TEXT/UTF8
    Codec ID/Info               : UTF-8 Plain Text
    Duration                    : 2 h 17 min
    Bit rate                    : 0 b/s
    Count of elements           : 30
    Stream size                 : 714 Bytes (0%)
    Title                       : Forzados [CinemaniaHDD]
    Language                    : Spanish
    Default                     : Yes
    Forced                      : Yes

    Text #2
    ID                          : 5
    Format                      : UTF-8
    Codec ID                    : S_TEXT/UTF8
    Codec ID/Info               : UTF-8 Plain Text
    Duration                    : 2 h 47 min
    Bit rate                    : 49 b/s
    Count of elements           : 2197
    Stream size                 : 61.1 KiB (0%)
    Title                       : Español latino [CinemaniaHDD]
    Language                    : Spanish
    Default                     : No
    Forced                      : No

     

  • Peso: 15.0 GiB

Sinopsis

Después de los eventos devastadores de ‘Vengadores: Infinity War’, el universo está en ruinas debido a las acciones de Thanos. Con la ayuda de los aliados que quedaron, los Vengadores deberán reunirse una vez más para intentar deshacer sus acciones y restaurar el orden en el universo de una vez por todas, sin importar cuáles sean las consecuencias… Cuarta y última entrega de la saga «Vengadores».

Ficha técnica

Video trailer de la película

Enlaces de descarga

Rip de Bluray

Descargar Avengers Endgame (2019) BDRip 3D-SBS 1080p Latino




Aportes de DPeliculasHDmega la pass es:dpeliculashdmega.org Aportes de CinemaniaHD la pass es:cinemaniahdd.com

Películas relacionadas

descargar Avengers Endgame (2019) BDRip 3D-SBS 1080p Latino 1080p 1080p gratis, Avengers Endgame (2019) BDRip 3D-SBS 1080p Latino 1080p mega 1 link, Avengers Endgame (2019) BDRip 3D-SBS 1080p Latino 1080p pelicula completa, descargar Avengers Endgame (2019) BDRip 3D-SBS 1080p Latino 1080p gratis en mega.

Avengers Endgame (2019) BDRip 3D-SBS 1080p Latino pelicula full hd, Avengers Endgame (2019) BDRip 3D-SBS 1080p Latino mega latino, Avengers Endgame (2019) BDRip 3D-SBS 1080p Latino 4k latino, Avengers Endgame (2019) BDRip 3D-SBS 1080p Latino pelicula completa, Avengers Endgame (2019) BDRip 3D-SBS 1080p Latino descargar gratis, descargar Avengers Endgame (2019) BDRip 3D-SBS 1080p Latino pelicula latino, Avengers Endgame (2019) BDRip 3D-SBS 1080p Latino 1 link mega, Avengers Endgame (2019) BDRip 3D-SBS 1080p Latino 1 link google drive, Avengers Endgame (2019) BDRip 3D-SBS 1080p Latino hd 1080p latino.
Comentarios 2
  • Eli1993 - 23 julio, 2020

    Hola, Me pide permisos en DRIVE para descargar AVENGERS ENDGAME 3D.

    Puedes ayudarme?

    Saludos,

    • Dracarys - 23 julio, 2020

      Hola solo esta disponible parra vip… las cuentas Free fueron eliminadas Saludos