Avengers Endgame (2019) 4K HDR Latino-CMHDD

12.488 vistas
1 estrella2 estrellas3 estrellas4 estrellas5 estrellas (12 votos, promedio: 4,25 de 5)
Cargando...

Información de Avengers Endgame (2019) 4K HDR Latino-CMHDD

Datos de la película

  • Calidad: 4K HDR
  • Audio: Se especifica abajo de la Sinopsis
  • Subtitulos: Español Latino PGS - Ingles PGS
  • Resolución: 3840x1608
  • Formato: MKV
  • Codec: HEVC
  • Encoder: CinemaniaHD
  • Mediainfo: Clic para Mostrar Datos Ver
  • Avengers Endgame (2019) UHD HDR Latino-CMHDD.mkv
    Format                      : Matroska
    Format version              : Version 4
    File size                   : 9.29 GiB
    Duration                    : 3 h 1 min
    Overall bit rate            : 7 337 kb/s
    Movie name                  : Avengers: Endgame (2019) CinemaniaHDD.Net
    Encoded date                : UTC 2020-03-05 19:56:37
    Writing application         : mkvmerge v42.0.0 ('Overtime') 64-bit
    Writing library             : libebml v1.3.10 + libmatroska v1.5.2
    Attachments                 : CINEMANIAHD.png

    Video
    ID                          : 1
    Format                      : HEVC
    Format/Info                 : High Efficiency Video Coding
    Commercial name             : HDR10
    Format profile              : Main 10@L5.1@High
    Codec ID                    : V_MPEGH/ISO/HEVC
    Duration                    : 3 h 1 min
    Bit rate                    : 5 009 kb/s
    Width                       : 3 840 pixels
    Height                      : 1 608 pixels
    Display aspect ratio        : 2.40:1
    Frame rate mode             : Constant
    Frame rate                  : 23.976 (24000/1001) FPS
    Color space                 : YUV
    Chroma subsampling          : 4:2:0 (Type 2)
    Bit depth                   : 10 bits
    Bits/(Pixel*Frame)          : 0.034
    Stream size                 : 6.34 GiB (68%)
    Title                       : 2160p HDR [Bluray]
    Writing library             : x265 3.1+10-459d3822c608:[Windows][GCC 6.3.0][64 bit] 10bit
    Encoding settings           : cpuid=1176575 / frame-threads=5 / numa-pools=36 / wpp / no-pmode / no-pme / no-psnr / no-ssim / log-level=2 / input-csp=1 / input-res=3840x1608 / interlace=0 / total-frames=260656 / level-idc=51 / high-tier=1 / uhd-bd=0 / ref=4 / no-allow-non-conformance / repeat-headers / annexb / aud / hrd / info / hash=0 / no-temporal-layers / no-open-gop / min-keyint=1 / keyint=24 / gop-lookahead=0 / bframes=4 / b-adapt=2 / b-pyramid / bframe-bias=0 / rc-lookahead=25 / lookahead-slices=4 / scenecut=40 / radl=0 / no-splice / no-intra-refresh / ctu=64 / min-cu-size=8 / rect / no-amp / max-tu-size=32 / tu-inter-depth=1 / tu-intra-depth=1 / limit-tu=0 / rdoq-level=2 / dynamic-rd=0.00 / no-ssim-rd / signhide / no-tskip / nr-intra=0 / nr-inter=0 / no-constrained-intra / no-strong-intra-smoothing / max-merge=3 / limit-refs=3 / limit-modes / me=3 / subme=3 / merange=57 / temporal-mvp / no-hme / weightp / no-weightb / no-analyze-src-pics / deblock=-3:-3 / no-sao / no-sao-non-deblock / rd=4 / no-early-skip / rskip / no-fast-intra / no-tskip-fast / no-cu-lossless / no-b-intra / no-splitrd-skip / rdpenalty=0 / psy-rd=2.00 / psy-rdoq=1.00 / no-rd-refine / no-lossless / cbqpoffs=0 / crqpoffs=0 / rc=crf / crf=17.0 / qcomp=0.60 / qpstep=4 / stats-write=0 / stats-read=0 / vbv-maxrate=160000 / vbv-bufsize=160000 / vbv-init=0.9 / crf-max=0.0 / crf-min=0.0 / ipratio=1.40 / pbratio=1.30 / aq-mode=2 / aq-strength=1.00 / cutree / zone-count=0 / no-strict-cbr / qg-size=32 / no-rc-grain / qpmax=69 / qpmin=0 / no-const-vbv / sar=1 / overscan=0 / videoformat=5 / range=0 / colorprim=9 / transfer=16 / colormatrix=9 / chromaloc=1 / chromaloc-top=2 / chromaloc-bottom=2 / display-window=0 / master-display=G(13250,34500)B(7500,3000)R(34000,16000)WP(15635,16450)L(40000000,50)cll=0,0 / min-luma=0 / max-luma=1023 / log2-max-poc-lsb=8 / vui-timing-info / vui-hrd-info / slices=1 / no-opt-qp-pps / no-opt-ref-list-length-pps / no-multi-pass-opt-rps / scenecut-bias=0.05 / no-opt-cu-delta-qp / no-aq-motion / hdr / hdr-opt / no-dhdr10-opt / no-idr-recovery-sei / analysis-reuse-level=5 / scale-factor=0 / refine-intra=0 / refine-inter=0 / refine-mv=0 / refine-ctu-distortion=0 / no-limit-sao / ctu-info=0 / no-lowpass-dct / refine-analysis-type=0 / copy-pic=1 / max-ausize-factor=1.0 / no-dynamic-refine / no-single-sei / no-hevc-aq / no-svt / no-field / qp-adaptation-range=1.00
    Default                     : Yes
    Forced                      : Yes
    Color range                 : Limited
    Color primaries             : BT.2020
    Transfer characteristics    : PQ
    Matrix coefficients         : BT.2020 non-constant
    Mastering display color pri : Display P3
    Mastering display luminance : min: 0.0050 cd/m2, max: 4000 cd/m2

    Audio #1
    ID                          : 2
    Format                      : E-AC-3
    Format/Info                 : Enhanced AC-3
    Commercial name             : Dolby Digital Plus
    Format profile              : Blu-ray Disc
    Codec ID                    : A_EAC3
    Duration                    : 3 h 1 min
    Bit rate mode               : Constant
    Bit rate                    : 1 024 kb/s
    Channel(s)                  : 8 channels
    Channel layout              : L R C LFE Ls Rs Lb Rb
    Sampling rate               : 48.0 kHz
    Frame rate                  : 31.250 FPS (1536 SPF)
    Compression mode            : Lossy
    Stream size                 : 1.30 GiB (14%)
    Title                       : DDP_7.1_Bluray_Esp
    Language                    : Spanish
    Service kind                : Complete Main
    Default                     : Yes
    Forced                      : Yes

    Audio #2
    ID                          : 3
    Format                      : AC-3
    Format/Info                 : Audio Coding 3
    Commercial name             : Dolby Digital
    Codec ID                    : A_AC3
    Duration                    : 3 h 1 min
    Bit rate mode               : Constant
    Bit rate                    : 640 kb/s
    Channel(s)                  : 6 channels
    Channel layout              : L R C LFE Ls Rs
    Sampling rate               : 48.0 kHz
    Frame rate                  : 31.250 FPS (1536 SPF)
    Bit depth                   : 16 bits
    Compression mode            : Lossy
    Stream size                 : 829 MiB (9%)
    Title                       : AC3_5.1_Bluray_Eng
    Language                    : English
    Service kind                : Complete Main
    Default                     : No
    Forced                      : No

    Audio #3
    ID                          : 4
    Format                      : AC-3
    Format/Info                 : Audio Coding 3
    Commercial name             : Dolby Digital
    Codec ID                    : A_AC3
    Duration                    : 3 h 1 min
    Bit rate mode               : Constant
    Bit rate                    : 640 kb/s
    Channel(s)                  : 6 channels
    Channel layout              : L R C LFE Ls Rs
    Sampling rate               : 48.0 kHz
    Frame rate                  : 31.250 FPS (1536 SPF)
    Bit depth                   : 16 bits
    Compression mode            : Lossy
    Stream size                 : 829 MiB (9%)
    Title                       : AC3_5.1_Bluray_Esp
    Language                    : Spanish
    Service kind                : Complete Main
    Default                     : No
    Forced                      : No

    Text #1
    ID                          : 5
    Format                      : PGS
    Muxing mode                 : zlib
    Codec ID                    : S_HDMV/PGS
    Codec ID/Info               : Picture based subtitle format used on BDs/HD-DVDs
    Duration                    : 2 h 17 min
    Bit rate                    : 509 b/s
    Count of elements           : 60
    Stream size                 : 513 KiB (0%)
    Title                       : Sub_Forzados [PGS]
    Language                    : Spanish
    Default                     : Yes
    Forced                      : Yes

    Text #2
    ID                          : 6
    Format                      : PGS
    Muxing mode                 : zlib
    Codec ID                    : S_HDMV/PGS
    Codec ID/Info               : Picture based subtitle format used on BDs/HD-DVDs
    Duration                    : 2 h 47 min
    Bit rate                    : 31.0 kb/s
    Count of elements           : 4394
    Stream size                 : 37.3 MiB (0%)
    Title                       : Sub_Esp [PGS]
    Language                    : Spanish
    Default                     : No
    Forced                      : No

    Text #3
    ID                          : 7
    Format                      : PGS
    Muxing mode                 : zlib
    Codec ID                    : S_HDMV/PGS
    Codec ID/Info               : Picture based subtitle format used on BDs/HD-DVDs
    Duration                    : 3 h 0 min
    Bit rate                    : 33.7 kb/s
    Count of elements           : 5266
    Stream size                 : 43.6 MiB (0%)
    Title                       : Sub_Eng [PGS]
    Language                    : English
    Default                     : No
    Forced                      : No

    Text #4
    ID                          : 8
    Format                      : UTF-8
    Codec ID                    : S_TEXT/UTF8
    Codec ID/Info               : UTF-8 Plain Text
    Duration                    : 1 h 24 min
    Bit rate                    : 1 b/s
    Count of elements           : 28
    Stream size                 : 633 Bytes (0%)
    Title                       : Sub_Forzados
    Language                    : Spanish
    Default                     : No
    Forced                      : No

    Text #5
    ID                          : 9
    Format                      : UTF-8
    Codec ID                    : S_TEXT/UTF8
    Codec ID/Info               : UTF-8 Plain Text
    Duration                    : 2 h 47 min
    Bit rate                    : 49 b/s
    Count of elements           : 2195
    Stream size                 : 61.4 KiB (0%)
    Title                       : Sub_Esp
    Language                    : Spanish
    Default                     : No
    Forced                      : No

  • Peso: 9.29 GiB

Sinopsis

Después de los eventos devastadores de ‘Vengadores: Infinity War’, el universo está en ruinas debido a las acciones de Thanos. Con la ayuda de los aliados que quedaron, los Vengadores deberán reunirse una vez más para intentar deshacer sus acciones y restaurar el orden en el universo de una vez por todas, sin importar cuáles sean las consecuencias… Cuarta y última entrega de la saga «Vengadores».

Audio Español Latino EAC3 7.1 + AC3 5.1 Bluray – Ingles AC3 5.1 Bluray

Ficha técnica

Video trailer de la película

Enlaces de descarga

Rip de Bluray

Descargar Avengers Endgame (2019) 4K HDR Latino-CMHDD




Aportes de DPeliculasHDmega la pass es:dpeliculashdmega.org Aportes de CinemaniaHD la pass es:cinemaniahdd.com

Películas relacionadas

  • La Familia De Pie Grande (2020) HD 1080p Latino

    La Familia De Pie Grande (2020) HD 1080p Latino

    2020
    La Familia De Pie Grande (2020) HD 1080p Latino

    0.0 1h 36m 2020

    Descargar La Familia De Pie Grande (2020) HD 1080p Latino. Bigfoot, el padre de Adam, quiere utilizar...

    Director: Jérémie Degruson

    Género: Animación

    Actores: Xavier Fagnon

  • La Familia De Pie Grande (2020) REMUX 1080p Latino

    La Familia De Pie Grande (2020) REMUX 1080p Latino

    2020
    La Familia De Pie Grande (2020) REMUX 1080p Latino

    0.0 1h 36m 2020

    Descargar La Familia De Pie Grande (2020) REMUX 1080p Latino. Bigfoot, el padre de Adam, quiere utilizar...

    Director: Jérémie Degruson

    Género: Animación

    Actores: Xavier Fagnon

  • Pelea De Chicas (2020) HD 1080p Latino

    Pelea De Chicas (2020) HD 1080p Latino

    2021
    Pelea De Chicas (2020) HD 1080p Latino

    0.0 1h 38m 2021

    Descargar Pelea De Chicas (2020) HD 1080p Latino. Cuando Anna Wyncomb descubre un club de lucha underground...

    Director: S. B. Weathersby

    Género: Acción

    Actores: Yetta Gottesman

  • Pelea De Chicas (2020) PLACEBO Full HD 1080p Latino

    Pelea De Chicas (2020) PLACEBO Full HD 1080p Latino

    2021
    Pelea De Chicas (2020) PLACEBO Full HD 1080p Latino

    0.0 1h 38m 2021

    Descargar Pelea De Chicas (2020) PLACEBO Full HD 1080p Latino. Cuando Anna Wyncomb descubre un club de...

    Director: S. B. Weathersby

    Género: Acción

    Actores: Yetta Gottesman

Avengers Endgame (2019) 4K HDR Latino-CMHDD pelicula full hd, Avengers Endgame (2019) 4K HDR Latino-CMHDD mega latino, Avengers Endgame (2019) 4K HDR Latino-CMHDD 4k latino, Avengers Endgame (2019) 4K HDR Latino-CMHDD pelicula completa, Avengers Endgame (2019) 4K HDR Latino-CMHDD descargar gratis, descargar Avengers Endgame (2019) 4K HDR Latino-CMHDD pelicula latino, Avengers Endgame (2019) 4K HDR Latino-CMHDD 1 link mega, Avengers Endgame (2019) 4K HDR Latino-CMHDD 1 link google drive, Avengers Endgame (2019) 4K HDR Latino-CMHDD hd 1080p latino.
Comentarios 3
  • Bishop - 21 julio, 2020

    Habran versiones mas pesadas para esperar?

    • Dracarys - 21 julio, 2020

      Solo Las que ya se posteaon…

  • g2 - 01 agosto, 2019

    excelente, agradecido!