×

¿Problemas para descargar con Mozilla, EDGE? Deshabilita la opción "Abrir vinculos en una pestaña nueva" tal como lo muestra ésta imagen.

Avengers: Endgame (2019) 1080p Latino

15.117 vistas

Información de Avengers: Endgame (2019) 1080p Latino

vengadores endgame 55537 poster

Datos de la película

  • Calidad: 1080p
  • Audio: Español Latino AC3 2.0 - Ingles AC3 2.0
  • Subtitulos: No
  • Resolución: 1920x1080
  • Formato: MKV
  • Codec: H.264
  • Encoder: cinemaniahdd
  • Mediainfo: Clic para Mostrar Datos Ver
  • Avengers Endgame (2019) 1080p Latino.mkv
    Format                      : Matroska
    Format version              : Version 4
    File size                   : 11.3 GiB
    Duration                    : 3 h 1 min
    Overall bit rate mode       : Constant
    Overall bit rate            : 8 943 kb/s
    Movie name                  : Avengers Endgame (2019) - CinemaniaHDD.Net
    Encoded date                : UTC 2019-07-27 23:24:16
    Writing application         : mkvmerge v35.0.0 ('All The Love In The World') 64-bit
    Writing library             : libebml v1.3.9 + libmatroska v1.5.2

    Video
    ID                          : 1
    Format                      : AVC
    Format/Info                 : Advanced Video Codec
    Format profile              : Main@L4.1
    Format settings             : 1 Ref Frames
    Format settings, CABAC      : No
    Format settings, ReFrames   : 1 frame
    Codec ID                    : V_MPEG4/ISO/AVC
    Duration                    : 3 h 1 min
    Bit rate mode               : Constant
    Bit rate                    : 8 500 kb/s
    Width                       : 1 920 pixels
    Height                      : 1 080 pixels
    Display aspect ratio        : 16:9
    Frame rate mode             : Constant
    Frame rate                  : 29.970 (30000/1001) FPS
    Color space                 : YUV
    Chroma subsampling          : 4:2:0
    Bit depth                   : 8 bits
    Scan type                   : Progressive
    Bits/(Pixel*Frame)          : 0.137
    Stream size                 : 10.7 GiB (94%)
    Title                       : CinemaniaHDD.Net
    Default                     : Yes
    Forced                      : No
    Color range                 : Limited
    Color primaries             : BT.709
    Transfer characteristics    : BT.709
    Matrix coefficients         : BT.709

    Audio #1
    ID                          : 2
    Format                      : AC-3
    Format/Info                 : Audio Coding 3
    Commercial name             : Dolby Digital
    Codec ID                    : A_AC3
    Duration                    : 3 h 1 min
    Bit rate mode               : Constant
    Bit rate                    : 256 kb/s
    Channel(s)                  : 2 channels
    Channel layout              : L R
    Sampling rate               : 48.0 kHz
    Frame rate                  : 31.250 FPS (1536 SPF)
    Bit depth                   : 16 bits
    Compression mode            : Lossy
    Delay relative to video     : -33 ms
    Stream size                 : 332 MiB (3%)
    Title                       : Español latino [CinemaniaHDD]
    Language                    : Spanish
    Service kind                : Complete Main
    Default                     : Yes
    Forced                      : No

    Audio #2
    ID                          : 3
    Format                      : AC-3
    Format/Info                 : Audio Coding 3
    Commercial name             : Dolby Digital
    Codec ID                    : A_AC3
    Duration                    : 3 h 1 min
    Bit rate mode               : Constant
    Bit rate                    : 256 kb/s
    Channel(s)                  : 2 channels
    Channel layout              : L R
    Sampling rate               : 48.0 kHz
    Frame rate                  : 31.250 FPS (1536 SPF)
    Bit depth                   : 16 bits
    Compression mode            : Lossy
    Delay relative to video     : -33 ms
    Stream size                 : 332 MiB (3%)
    Title                       : Inglés [CinemaniaHDD]
    Language                    : English
    Service kind                : Complete Main
    Default                     : No
    Forced                      : No

  • Peso: 11.3 GiB

Sinopsis

Después de los eventos devastadores de ‘Vengadores: Infinity War’, el universo está en ruinas debido a las acciones de Thanos. Con la ayuda de los aliados que quedaron, los Vengadores deberán reunirse una vez más para intentar deshacer sus acciones y restaurar el orden en el universo de una vez por todas, sin importar cuáles sean las consecuencias… Cuarta y última entrega de la saga «Vengadores».

NOTA: Es un rip de Bluray, pero no incluye audios intactos 5.1

DESCARGA UN SAMPLE AQUI

 

Ficha técnica

Video trailer de la película

Enlaces de descarga

Rip de Bluray

Descargar Avengers: Endgame (2019) 1080p Latino




Aportes de DPeliculasHDmega la pass es:dpeliculashdmega.org Aportes de CinemaniaHD la pass es:cinemaniahdd.com
Guardado en : Acción , Aventura , Ciencia ficción

Películas relacionadas

descargar Avengers: Endgame (2019) 1080p Latino 1080p 1080p gratis, Avengers: Endgame (2019) 1080p Latino 1080p mega 1 link, Avengers: Endgame (2019) 1080p Latino 1080p pelicula completa, descargar Avengers: Endgame (2019) 1080p Latino 1080p gratis en mega.

Avengers: Endgame (2019) 1080p Latino pelicula full hd, Avengers: Endgame (2019) 1080p Latino mega latino, Avengers: Endgame (2019) 1080p Latino 4k latino, Avengers: Endgame (2019) 1080p Latino pelicula completa, Avengers: Endgame (2019) 1080p Latino descargar gratis, descargar Avengers: Endgame (2019) 1080p Latino pelicula latino, Avengers: Endgame (2019) 1080p Latino 1 link mega, Avengers: Endgame (2019) 1080p Latino 1 link google drive, Avengers: Endgame (2019) 1080p Latino hd 1080p latino.
Comentarios 5
  • Marco - 28 julio, 2019

    Meh mejor me espero unos días más para la versión placebo. Aún así, excelente aporte.

  • Eduardo Alduenda - 28 julio, 2019

    Exelente Gracias,

  • Guillermo Hurtado Henao - 28 julio, 2019

    Gracias por tan excelentes aportes..

  • DarkHaunter90| - 27 julio, 2019

    Excelente! Lo esperaba con ansias.- Salu2

  • oniizumo - 27 julio, 2019

    excelente muchas gracias