×

¿Problemas para descargar con Mozilla, EDGE? Deshabilita la opción "Abrir vinculos en una pestaña nueva" tal como lo muestra ésta imagen.

Avengers (2012) REMUX 1080p Latino – CMHDD

1.981 vistas

Información de Avengers (2012) REMUX 1080p Latino – CMHDD

n3G6dLQPDDdKvUKWMlCI7LRH9TQ

Datos de la película

  • Calidad: Full 1080p
  • Audio: Se especifica abajo de la Sinopsis
  • Subtitulos: Español Latino SRT- FORZADOS SRT
  • Resolución: 1920x1080p
  • Formato: MKV
  • Codec: H.264
  • Encoder: Dracarys
  • Mediainfo: Clic para Mostrar Datos Ver
  • Format                      : Matroska
    Format version              : Version 4
    File size                   : 30.4 GiB
    Duration                    : 2 h 22 min
    Overall bit rate mode       : Variable
    Overall bit rate            : 30.4 Mb/s
    Movie name                  : Avengers (2012) REMUX 1080p Latino - CMHDD
    Encoded date                : UTC 2020-07-21 01:25:40
    Writing application         : mkvmerge v46.0.0 ('No Deeper Escape') 64-bit
    Writing library             : libebml v1.3.10 + libmatroska v1.5.2

    Video
    ID                          : 1
    Format                      : AVC
    Format/Info                 : Advanced Video Codec
    Format profile              : High@L4.1
    Format settings             : CABAC / 4 Ref Frames
    Format settings, CABAC      : Yes
    Format settings, Reference  : 4 frames
    Codec ID                    : V_MPEG4/ISO/AVC
    Duration                    : 2 h 22 min
    Bit rate mode               : Variable
    Bit rate                    : 23.5 Mb/s
    Maximum bit rate            : 32.0 Mb/s
    Width                       : 1 920 pixels
    Height                      : 1 080 pixels
    Display aspect ratio        : 16:9
    Frame rate mode             : Constant
    Frame rate                  : 23.976 (24000/1001) FPS
    Color space                 : YUV
    Chroma subsampling          : 4:2:0
    Bit depth                   : 8 bits
    Scan type                   : Progressive
    Bits/(Pixel*Frame)          : 0.473
    Stream size                 : 23.5 GiB (77%)
    Default                     : Yes
    Forced                      : No

    Audio #1
    ID                          : 2
    Format                      : E-AC-3
    Format/Info                 : Enhanced AC-3
    Commercial name             : Dolby Digital Plus
    Format profile              : Blu-ray Disc
    Codec ID                    : A_EAC3
    Duration                    : 2 h 22 min
    Bit rate mode               : Constant
    Bit rate                    : 1 024 kb/s
    Channel(s)                  : 8 channels
    Channel layout              : L R C LFE Ls Rs Lb Rb
    Sampling rate               : 48.0 kHz
    Frame rate                  : 31.250 FPS (1536 SPF)
    Compression mode            : Lossy
    Delay relative to video     : 24 ms
    Stream size                 : 1.02 GiB (3%)
    Title                       : E-AC3 7-1
    Language                    : Spanish
    Service kind                : Complete Main
    Default                     : Yes
    Forced                      : No

    Audio #2
    ID                          : 3
    Format                      : AC-3
    Format/Info                 : Audio Coding 3
    Commercial name             : Dolby Digital
    Codec ID                    : A_AC3
    Duration                    : 2 h 22 min
    Bit rate mode               : Constant
    Bit rate                    : 640 kb/s
    Channel(s)                  : 6 channels
    Channel layout              : L R C LFE Ls Rs
    Sampling rate               : 48.0 kHz
    Frame rate                  : 31.250 FPS (1536 SPF)
    Compression mode            : Lossy
    Delay relative to video     : 24 ms
    Stream size                 : 654 MiB (2%)
    Title                       : AC3 5.1
    Language                    : Spanish
    Service kind                : Complete Main
    Default                     : No
    Forced                      : No

    Audio #3
    ID                          : 4
    Format                      : DTS XLL
    Format/Info                 : Digital Theater Systems
    Commercial name             : DTS-HD Master Audio
    Codec ID                    : A_DTS
    Duration                    : 2 h 22 min
    Bit rate mode               : Variable
    Bit rate                    : 5 217 kb/s
    Channel(s)                  : 8 channels
    Channel layout              : C L R LFE Lb Rb Lss Rss
    Sampling rate               : 48.0 kHz
    Frame rate                  : 93.750 FPS (512 SPF)
    Bit depth                   : 24 bits
    Compression mode            : Lossless
    Stream size                 : 5.21 GiB (17%)
    Title                       : DTS-HD MA 7.1
    Language                    : English
    Default                     : No
    Forced                      : No

    Text #1
    ID                          : 5
    Format                      : UTF-8
    Codec ID                    : S_TEXT/UTF8
    Codec ID/Info               : UTF-8 Plain Text
    Duration                    : 2 h 15 min
    Bit rate                    : 47 b/s
    Count of elements           : 1634
    Stream size                 : 47.3 KiB (0%)
    Title                       : SRT-Completos
    Default                     : No
    Forced                      : No

    Text #2
    ID                          : 6
    Format                      : UTF-8
    Codec ID                    : S_TEXT/UTF8
    Codec ID/Info               : UTF-8 Plain Text
    Duration                    : 2 h 4 min
    Bit rate                    : 1 b/s
    Count of elements           : 39
    Stream size                 : 980 Bytes (0%)
    Title                       : SRT-Forzados
    Language                    : Spanish
    Default                     : Yes
    Forced                      : No

    Text #3
    ID                          : 7
    Format                      : PGS
    Muxing mode                 : zlib
    Codec ID                    : S_HDMV/PGS
    Codec ID/Info               : Picture based subtitle format used on BDs/HD-DVDs
    Duration                    : 2 h 15 min
    Bit rate                    : 30.0 kb/s
    Count of elements           : 3268
    Stream size                 : 29.1 MiB (0%)
    Title                       : PGS-Completos
    Language                    : Spanish
    Default                     : No
    Forced                      : No

    Text #4
    ID                          : 8
    Format                      : PGS
    Muxing mode                 : zlib
    Codec ID                    : S_HDMV/PGS
    Codec ID/Info               : Picture based subtitle format used on BDs/HD-DVDs
    Duration                    : 2 h 4 min
    Bit rate                    : 705 b/s
    Count of elements           : 78
    Stream size                 : 645 KiB (0%)
    Title                       : PGS-Forzados
    Language                    : Spanish
    Default                     : No
    Forced                      : No

  • Peso: 30.4 GiB

Sinopsis

Cuando un enemigo inesperado surge como una gran amenaza para la seguridad mundial, Nick Fury, director de la Agencia SHIELD, decide reclutar a un equipo para salvar al mundo de un desastre casi seguro. Adaptación del cómic de Marvel «Los Vengadores», el legendario grupo de superhéroes formado por Ironman, Hulk, Thor y el Capitán América entre otros.

 

 

Latino: E-AC3 7.1 + Ac3 5.1  –  Ingles: DTS-HD MA 7.1

Ficha técnica

Video trailer de la película

Enlaces de descarga

Rip de Bluray

Descargar Avengers (2012) REMUX 1080p Latino – CMHDD




Aportes de DPeliculasHDmega la pass es:dpeliculashdmega.org Aportes de CinemaniaHD la pass es:cinemaniahdd.com
Guardado en : Acción , Aventura , Ciencia ficción , Remux

Películas relacionadas

  • Paradise Highway (2022) REMUX 1080p Latino

    Paradise Highway (2022) REMUX 1080p Latino

    2022
    Paradise Highway (2022) REMUX 1080p Latino

    1h 55m 2022

    Descargar Paradise Highway (2022) REMUX 1080p Latino. Un camionero se ha visto obligado a pasar de contrabando...

    Director: Anna Gutto

    Género: Crimen

    Actores: Xavier Scott Evans

  • Shotgun Wedding (2022) AMZN WEB-DL 1080p Latino

    Shotgun Wedding (2022) AMZN WEB-DL 1080p Latino

    2022
    Shotgun Wedding (2022) AMZN WEB-DL 1080p Latino

    1h 41m 2022

    Darcy y Tom reúnen a sus familias para la boda de destino definitiva, pero cuando toman como rehenes...

    Director: Jason Moore

    Género: Acción

    Actores: Steve Coulter

  • M3GAN (2023) AMZN WEB-DL 4K UHD HDR Latino

    M3GAN (2023) AMZN WEB-DL 4K UHD HDR Latino

    2022
    M3GAN (2023) AMZN WEB-DL 4K UHD HDR Latino

    1h 42m 2022

    Descargar M3GAN (2023) AMZN WEB-DL 4K UHD HDR Latino. Cuando Gemma se convierte en la cuidadora de su...

    Director: Stephen W. Moore

    Género: 4K HDR

    Actores: Violet McGraw

  • M3GAN (2022) MA WEB-DL 1080p Latino

    M3GAN (2022) MA WEB-DL 1080p Latino

    2022
    M3GAN (2022) MA WEB-DL 1080p Latino

    1h 42m 2022

    Descargar M3GAN (2022) MA WEB-DL 1080p Latino. Cuando Gemma se convierte en la cuidadora de su sobrina...

    Director: Stephen W. Moore

    Género: Ciencia ficción

    Actores: Violet McGraw

descargar Avengers (2012) REMUX 1080p Latino – CMHDD Full 1080p 1080p gratis, Avengers (2012) REMUX 1080p Latino – CMHDD Full 1080p mega 1 link, Avengers (2012) REMUX 1080p Latino – CMHDD Full 1080p pelicula completa, descargar Avengers (2012) REMUX 1080p Latino – CMHDD Full 1080p gratis en mega.

Avengers (2012) REMUX 1080p Latino – CMHDD pelicula full hd, Avengers (2012) REMUX 1080p Latino – CMHDD mega latino, Avengers (2012) REMUX 1080p Latino – CMHDD 4k latino, Avengers (2012) REMUX 1080p Latino – CMHDD pelicula completa, Avengers (2012) REMUX 1080p Latino – CMHDD descargar gratis, descargar Avengers (2012) REMUX 1080p Latino – CMHDD pelicula latino, Avengers (2012) REMUX 1080p Latino – CMHDD 1 link mega, Avengers (2012) REMUX 1080p Latino – CMHDD 1 link google drive, Avengers (2012) REMUX 1080p Latino – CMHDD hd 1080p latino.
Comentarios 7
  • José Luis - 23 julio, 2020

    por qué es necesario hacerlo tan complicado ?
    Los gringos usan RARBG y los rusos RuTracker. Donde solo se necesita el link del torrent y el resto es automático.
    Nada de pincha aquí, espera un rato, cierra pestañas, cuidado con los virus…
    Los latinos no podemos tener algo así ?.

    • Dracarys - 23 julio, 2020

      Con Vip eso no pasa. Saludos…

  • ocpgaiden - 22 julio, 2020

    Gracias y saludos

  • carlos - 23 abril, 2019

    que es Remux??

    • Dracarys - 24 abril, 2019

      remux es la versión bluray sin modificaciones

    • Francisco - 25 abril, 2019

      es un ripeo del bluray sin pasar por encodeos para bajar el peso, son los archivos de video, audio y subtitulos dentro de un contendedor MKV, por eso son un poco pesados

      • Every - 28 abril, 2019

        Corrección El remux no es un ripeo del blu-ray es la versión bluray sin modificaciones..