×

¿Problemas para descargar con Mozilla, EDGE? Deshabilita la opción "Abrir vinculos en una pestaña nueva" tal como lo muestra ésta imagen.

Avatar: El camino del agua (2022) WEB-DL 1080p Latino

407 vistas

Información de Avatar: El camino del agua (2022) WEB-DL 1080p Latino

Datos de la película

  • Calidad: WEBDL
  • Audio: Se especifica abajo de la Sinopsis
  • Subtitulos: Español Latino SRT- FORZADOS SRT
  • Resolución: 1920x1080p
  • Formato: MKV
  • Codec: H.264
  • Encoder: Melkor
  • Mediainfo: Clic para Mostrar Datos Ver
  • Avatar. La Forma Del Agua (2022) WebDL 1080p Latino.mkv
    Format                      : Matroska
    Format version              : Version 4
    File size                   : 15.6 GiB
    Duration                    : 3 h 12 min
    Overall bit rate            : 11.6 Mb/s
    Movie name                  : Avatar. The Way of Water (2022) CinemaniaHDD.Net
    Encoded date                : UTC 2023-03-27 16:05:45
    Writing application         : mkvmerge v56.1.0 ('My Friend') 64-bit
    Writing library             : libebml v1.4.2 + libmatroska v1.6.4
    Attachments                 : CINEMANIAHD.png
    Site                        : CinemaniaHDD.Net
    Uploader                    : Melkor

    Video
    ID                          : 1
    Format                      : AVC
    Format/Info                 : Advanced Video Codec
    Format profile              : High@L4
    Format settings             : CABAC / 4 Ref Frames
    Format settings, CABAC      : Yes
    Format settings, Reference  : 4 frames
    Codec ID                    : V_MPEG4/ISO/AVC
    Duration                    : 3 h 12 min
    Bit rate                    : 9 681 kb/s
    Width                       : 1 920 pixels
    Height                      : 1 036 pixels
    Display aspect ratio        : 1.85:1
    Frame rate mode             : Constant
    Frame rate                  : 23.976 (24000/1001) FPS
    Color space                 : YUV
    Chroma subsampling          : 4:2:0
    Bit depth                   : 8 bits
    Scan type                   : Progressive
    Bits/(Pixel*Frame)          : 0.203
    Stream size                 : 13.0 GiB (83%)
    Title                       : Web HD1080p [CinemaniaHDD]
    Language                    : English
    Default                     : Yes
    Forced                      : Yes
    Color range                 : Limited
    Color primaries             : BT.709
    Transfer characteristics    : BT.709
    Matrix coefficients         : BT.709

    Audio #1
    ID                          : 2
    Format                      : AC-3
    Format/Info                 : Audio Coding 3
    Commercial name             : Dolby Digital
    Codec ID                    : A_AC3
    Duration                    : 3 h 12 min
    Bit rate mode               : Constant
    Bit rate                    : 640 kb/s
    Channel(s)                  : 6 channels
    Channel layout              : L R C LFE Ls Rs
    Sampling rate               : 48.0 kHz
    Frame rate                  : 31.250 FPS (1536 SPF)
    Compression mode            : Lossy
    Stream size                 : 882 MiB (6%)
    Title                       : Español Latino AC3 [CinemaniaHDD]
    Language                    : Spanish
    Service kind                : Complete Main
    Default                     : Yes
    Forced                      : Yes

    Audio #2
    ID                          : 3
    Format                      : E-AC-3
    Format/Info                 : Enhanced AC-3
    Commercial name             : Dolby Digital Plus
    Codec ID                    : A_EAC3
    Duration                    : 3 h 12 min
    Bit rate mode               : Constant
    Bit rate                    : 640 kb/s
    Channel(s)                  : 8 channels
    Channel layout              : L R C LFE Ls Rs Lb Rb
    Sampling rate               : 48.0 kHz
    Frame rate                  : 31.250 FPS (1536 SPF)
    Compression mode            : Lossy
    Stream size                 : 882 MiB (6%)
    Title                       : Español Latino EAC3 [CinemaniaHDD]
    Language                    : Spanish
    Service kind                : Complete Main
    Default                     : No
    Forced                      : No

    Audio #3
    ID                          : 4
    Format                      : E-AC-3
    Format/Info                 : Enhanced AC-3
    Commercial name             : Dolby Digital Plus
    Codec ID                    : A_EAC3
    Duration                    : 3 h 12 min
    Bit rate mode               : Constant
    Bit rate                    : 640 kb/s
    Channel(s)                  : 8 channels
    Channel layout              : L R C LFE Ls Rs Lb Rb
    Sampling rate               : 48.0 kHz
    Frame rate                  : 31.250 FPS (1536 SPF)
    Compression mode            : Lossy
    Stream size                 : 882 MiB (6%)
    Title                       : Ingles [CinemaniaHDD]
    Language                    : English
    Service kind                : Complete Main
    Default                     : No
    Forced                      : No

    Text #1
    ID                          : 5
    Format                      : UTF-8
    Codec ID                    : S_TEXT/UTF8
    Codec ID/Info               : UTF-8 Plain Text
    Duration                    : 3 h 2 min
    Bit rate                    : 39 b/s
    Count of elements           : 2411
    Stream size                 : 53.2 KiB (0%)
    Title                       : Forzados-SRT [CinemaniaHDD]
    Language                    : Spanish
    Default                     : Yes
    Forced                      : Yes

    Text #2
    ID                          : 6
    Format                      : UTF-8
    Codec ID                    : S_TEXT/UTF8
    Codec ID/Info               : UTF-8 Plain Text
    Duration                    : 3 h 2 min
    Bit rate                    : 40 b/s
    Count of elements           : 2411
    Stream size                 : 53.5 KiB (0%)
    Title                       : Español-SRT [CinemaniaHDD]
    Language                    : Spanish
    Default                     : No
    Forced                      : No

    Text #3
    ID                          : 7
    Format                      : UTF-8
    Codec ID                    : S_TEXT/UTF8
    Codec ID/Info               : UTF-8 Plain Text
    Duration                    : 3 h 1 min
    Bit rate                    : 38 b/s
    Count of elements           : 2359
    Stream size                 : 51.6 KiB (0%)
    Title                       : Ingles-SRT [CinemaniaHDD]
    Language                    : English
    Default                     : No
    Forced                      : No

    Menu
    00:00:00.000                : Chapter 01
    00:05:21.237                : Chapter 02
    00:05:57.524                : Chapter 03
    00:08:53.992                : Chapter 04
    00:12:27.455                : Chapter 05
    00:15:43.193                : Chapter 06
    00:16:35.495                : Chapter 07
    00:18:43.373                : Chapter 08
    00:19:58.782                : Chapter 09
    00:22:28.640                : Chapter 10
    00:25:33.992                : Chapter 11
    00:26:35.470                : Chapter 12
    00:28:27.499                : Chapter 13
    00:31:46.906                : Chapter 14
    00:35:24.290                : Chapter 15
    00:42:25.170                : Chapter 16
    00:42:52.364                : Chapter 17
    00:44:45.018                : Chapter 18
    00:45:54.963                : Chapter 19
    00:48:13.018                : Chapter 20
    00:49:55.203                : Chapter 21
    00:56:43.111                : Chapter 22
    00:57:49.844                : Chapter 23
    01:01:04.080                : Chapter 24
    01:02:38.091                : Chapter 25
    01:06:58.184                : Chapter 26
    01:09:24.789                : Chapter 27
    01:11:24.200                : Chapter 28
    01:15:15.181                : Chapter 29
    01:17:41.786                : Chapter 30
    01:21:00.318                : Chapter 31
    01:24:47.087                : Chapter 32
    01:26:34.277                : Chapter 33
    01:29:09.683                : Chapter 34
    01:32:01.187                : Chapter 35
    01:33:36.574                : Chapter 36
    01:35:30.522                : Chapter 37
    01:37:38.191                : Chapter 38
    01:38:32.412                : Chapter 39
    01:40:24.607                : Chapter 40
    01:43:09.689                : Chapter 41
    01:46:07.575                : Chapter 42
    01:48:19.541                : Chapter 43
    01:51:13.465                : Chapter 44
    01:53:04.951                : Chapter 45
    01:54:25.115                : Chapter 46
    02:00:53.878                : Chapter 47
    02:03:17.230                : Chapter 48
    02:04:43.858                : Chapter 49
    02:07:00.829                : Chapter 50
    02:08:30.418                : Chapter 51
    02:12:31.868                : Chapter 52
    02:15:53.028                : Chapter 53
    02:17:32.711                : Chapter 54
    02:19:52.642                : Chapter 55
    02:21:20.397                : Chapter 56
    02:24:45.685                : Chapter 57
    02:26:19.070                : Chapter 58
    02:28:09.723                : Chapter 59
    02:28:46.259                : Chapter 60
    02:30:31.823                : Chapter 61
    02:31:44.187                : Chapter 62
    02:32:36.489                : Chapter 63
    02:36:52.162                : Chapter 64
    02:41:30.190                : Chapter 65
    02:44:04.219                : Chapter 66
    02:44:28.618                : Chapter 67
    02:47:14.284                : Chapter 68
    02:48:20.350                : Chapter 69
    02:52:01.988                : Chapter 70
    02:55:21.563                : Chapter 71
    02:58:32.087                : Chapter 72
    03:00:30.747                : Chapter 73
    03:01:08.702                : Chapter 74
    03:03:21.793                : Chapter 75

  • Peso: 15.6 GiB

Sinopsis

Descargar Avatar: El camino del agua (2022) WEB-DL 1080p Latino. Ambientada más de una década después de los acontecimientos de la primera película, ‘Avatar: The Way of Water’ empieza contando la historia de la familia Sully (Jake, Neytiri y sus hijos), los problemas que los persiguen, lo que tienen que hacer para mantenerse a salvo, las batallas que libran para seguir con vida y las tragedias que sufren.

Español Latino EAC3 7.1 & AC3 5.1 Web – Ingles EAC3 7 .1 Web

Ficha técnica

Video trailer de la película

Enlaces de descarga

Rip de Bluray

Descargar Avatar: El camino del agua (2022) WEB-DL 1080p Latino




Aportes de DPeliculasHDmega la pass es:dpeliculashdmega.org Aportes de CinemaniaHD la pass es:cinemaniahdd.com Aportes recientes:cinemaniahdd.net
Guardado en : Acción , Aventura , Ciencia ficción

Películas relacionadas

  • 57 Seconds (2023) AMZN WEB-DL 1080p Latino

    57 Seconds (2023) AMZN WEB-DL 1080p Latino

    2023
    57 Seconds (2023) AMZN WEB-DL 1080p Latino

    1h 39m 2023

    Cuando un blogger de tecnología consigue una entrevista con un gurú de la tecnología y detiene un...

    Director: Taylor DiMarco

    Género: Acción

    Actores: Valerie E. Lamb

  • The Bodyguard (1992) 1080p Latino-CMHDD

    The Bodyguard (1992) 1080p Latino-CMHDD

    1992
    The Bodyguard (1992) 1080p Latino-CMHDD

    2h 9m 1992

    Descargar The Bodyguard (1992) 1080p Latino-CMHDD. Una cantante famosa que recibe constantes cartas anónimas...

    Director: Mick Jackson

    Género: Acción

    Actores: Whitney Houston

  • The Bodyguard (1992) Full HD 1080p Latino-CMHDD

    The Bodyguard (1992) Full HD 1080p Latino-CMHDD

    1992
    The Bodyguard (1992) Full HD 1080p Latino-CMHDD

    2h 9m 1992

    Descargar The Bodyguard (1992) Full HD 1080p Latino-CMHDD. Una cantante famosa que recibe constantes...

    Director: Mick Jackson

    Género: Acción

    Actores: Whitney Houston

  • The Bodyguard (1992) REMUX 1080p Latino-CMHDD

    The Bodyguard (1992) REMUX 1080p Latino-CMHDD

    1992
    The Bodyguard (1992) REMUX 1080p Latino-CMHDD

    2h 9m 1992

    Descargar The Bodyguard (1992) REMUX 1080p Latino-CMHDD. Una cantante famosa que recibe constantes cartas...

    Director: Mick Jackson

    Género: Acción

    Actores: Whitney Houston

descargar Avatar: El camino del agua (2022) WEB-DL 1080p Latino WEBDL 1080p gratis, Avatar: El camino del agua (2022) WEB-DL 1080p Latino WEBDL mega 1 link, Avatar: El camino del agua (2022) WEB-DL 1080p Latino WEBDL pelicula completa, descargar Avatar: El camino del agua (2022) WEB-DL 1080p Latino WEBDL gratis en mega.

Avatar: El camino del agua (2022) WEB-DL 1080p Latino pelicula full hd, Avatar: El camino del agua (2022) WEB-DL 1080p Latino mega latino, Avatar: El camino del agua (2022) WEB-DL 1080p Latino 4k latino, Avatar: El camino del agua (2022) WEB-DL 1080p Latino pelicula completa, Avatar: El camino del agua (2022) WEB-DL 1080p Latino descargar gratis, descargar Avatar: El camino del agua (2022) WEB-DL 1080p Latino pelicula latino, Avatar: El camino del agua (2022) WEB-DL 1080p Latino 1 link mega, Avatar: El camino del agua (2022) WEB-DL 1080p Latino 1 link google drive, Avatar: El camino del agua (2022) WEB-DL 1080p Latino hd 1080p latino.
Comentarios 0