×

¿Problemas para descargar con Mozilla, EDGE? Deshabilita la opción "Abrir vinculos en una pestaña nueva" tal como lo muestra ésta imagen.

Avatar: El camino del agua (2022) REMUX 1080p Latino

275 vistas

Información de Avatar: El camino del agua (2022) REMUX 1080p Latino

Datos de la película

  • Calidad: Full 1080p
  • Audio: Se especifica abajo de la Sinopsis
  • Subtitulos: Español Latino PGS - Ingles PGS
  • Resolución: 1920x1080p
  • Formato: MKV
  • Codec: H.264
  • Encoder: Melkor
  • Mediainfo: Clic para Mostrar Datos Ver
  • Avatar El camino del agua (2022) REMUX 1080p Latino.mkv
    Format                      : Matroska
    Format version              : Version 4
    File size                   : 38.6 GiB
    Duration                    : 3 h 12 min
    Overall bit rate mode       : Variable
    Overall bit rate            : 28.7 Mb/s
    Movie name                  : Avatar. The Way of Water (2022) CinemaniaHDD.Net
    Encoded date                : UTC 2023-06-13 02:47:26
    Writing application         : mkvmerge v56.1.0 ('My Friend') 64-bit
    Writing library             : libebml v1.4.2 + libmatroska v1.6.4
    Attachments                 : CINEMANIAHD.png
    Site                        : CinemaniaHDD.Net
    Uploader                    : Melkor

    Video
    ID                          : 1
    Format                      : AVC
    Format/Info                 : Advanced Video Codec
    Format profile              : High@L4.1
    Format settings             : CABAC / 4 Ref Frames
    Format settings, CABAC      : Yes
    Format settings, Reference  : 4 frames
    Codec ID                    : V_MPEG4/ISO/AVC
    Duration                    : 3 h 12 min
    Bit rate mode               : Variable
    Bit rate                    : 23.4 Mb/s
    Maximum bit rate            : 38.9 Mb/s
    Width                       : 1 920 pixels
    Height                      : 1 080 pixels
    Display aspect ratio        : 16:9
    Frame rate mode             : Constant
    Frame rate                  : 23.976 (24000/1001) FPS
    Color space                 : YUV
    Chroma subsampling          : 4:2:0
    Bit depth                   : 8 bits
    Scan type                   : Progressive
    Bits/(Pixel*Frame)          : 0.470
    Stream size                 : 31.5 GiB (81%)
    Title                       : REMUX HD1080p [CinemaniaHDD]
    Default                     : Yes
    Forced                      : Yes

    Audio #1
    ID                          : 2
    Format                      : AC-3
    Format/Info                 : Audio Coding 3
    Commercial name             : Dolby Digital
    Codec ID                    : A_AC3
    Duration                    : 3 h 12 min
    Bit rate mode               : Constant
    Bit rate                    : 640 kb/s
    Channel(s)                  : 6 channels
    Channel layout              : L R C LFE Ls Rs
    Sampling rate               : 48.0 kHz
    Frame rate                  : 31.250 FPS (1536 SPF)
    Compression mode            : Lossy
    Stream size                 : 882 MiB (2%)
    Title                       : Español Latino AC3 [CinemaniaHDD]
    Language                    : Spanish
    Service kind                : Complete Main
    Default                     : Yes
    Forced                      : Yes

    Audio #2
    ID                          : 3
    Format                      : E-AC-3
    Format/Info                 : Enhanced AC-3
    Commercial name             : Dolby Digital Plus
    Codec ID                    : A_EAC3
    Duration                    : 3 h 12 min
    Bit rate mode               : Constant
    Bit rate                    : 640 kb/s
    Channel(s)                  : 8 channels
    Channel layout              : L R C LFE Ls Rs Lb Rb
    Sampling rate               : 48.0 kHz
    Frame rate                  : 31.250 FPS (1536 SPF)
    Compression mode            : Lossy
    Stream size                 : 882 MiB (2%)
    Title                       : Español Latino EAC3 [CinemaniaHDD]
    Language                    : Spanish
    Service kind                : Complete Main
    Default                     : No
    Forced                      : No

    Audio #3
    ID                          : 4
    Format                      : DTS XLL
    Format/Info                 : Digital Theater Systems
    Commercial name             : DTS-HD Master Audio
    Codec ID                    : A_DTS
    Duration                    : 3 h 12 min
    Bit rate mode               : Variable
    Bit rate                    : 4 030 kb/s
    Channel(s)                  : 6 channels
    Channel layout              : C L R Ls Rs LFE
    Sampling rate               : 48.0 kHz
    Frame rate                  : 93.750 FPS (512 SPF)
    Bit depth                   : 24 bits
    Compression mode            : Lossless
    Stream size                 : 5.42 GiB (14%)
    Title                       : Ingles [CinemaniaHDD]
    Language                    : English
    Default                     : No
    Forced                      : No

    Text #1
    ID                          : 5
    Format                      : PGS
    Muxing mode                 : zlib
    Codec ID                    : S_HDMV/PGS
    Codec ID/Info               : Picture based subtitle format used on BDs/HD-DVDs
    Duration                    : 3 h 3 min
    Bit rate                    : 473 b/s
    Count of elements           : 150
    Stream size                 : 636 KiB (0%)
    Title                       : Forzados-PGS [CinemaniaHDD]
    Language                    : Spanish
    Default                     : No
    Forced                      : No

    Text #2
    ID                          : 6
    Format                      : PGS
    Muxing mode                 : zlib
    Codec ID                    : S_HDMV/PGS
    Codec ID/Info               : Picture based subtitle format used on BDs/HD-DVDs
    Duration                    : 3 h 2 min
    Bit rate                    : 24.3 kb/s
    Count of elements           : 4824
    Stream size                 : 31.7 MiB (0%)
    Title                       : Español-PGS [CinemaniaHDD]
    Language                    : Spanish
    Default                     : No
    Forced                      : No

    Text #3
    ID                          : 7
    Format                      : PGS
    Muxing mode                 : zlib
    Codec ID                    : S_HDMV/PGS
    Codec ID/Info               : Picture based subtitle format used on BDs/HD-DVDs
    Duration                    : 3 h 8 min
    Bit rate                    : 39.1 kb/s
    Count of elements           : 6942
    Stream size                 : 52.8 MiB (0%)
    Title                       : Ingles-PGS [CinemaniaHDD]
    Language                    : English
    Default                     : No
    Forced                      : No

    Text #4
    ID                          : 8
    Format                      : UTF-8
    Codec ID                    : S_TEXT/UTF8
    Codec ID/Info               : UTF-8 Plain Text
    Duration                    : 3 h 0 min
    Bit rate                    : 0 b/s
    Count of elements           : 55
    Stream size                 : 1.15 KiB (0%)
    Title                       : Forzados-SRT [CinemaniaHDD]
    Language                    : Spanish
    Default                     : Yes
    Forced                      : Yes

    Text #5
    ID                          : 9
    Format                      : UTF-8
    Codec ID                    : S_TEXT/UTF8
    Codec ID/Info               : UTF-8 Plain Text
    Duration                    : 3 h 2 min
    Bit rate                    : 40 b/s
    Count of elements           : 2411
    Stream size                 : 53.5 KiB (0%)
    Title                       : Español-SRT [CinemaniaHDD]
    Language                    : Spanish
    Default                     : No
    Forced                      : No

    Menu
    00:00:00.000                : :Chapter 01
    00:05:21.238                : :Chapter 02
    00:05:57.524                : :Chapter 03
    00:08:54.033                : :Chapter 04
    00:12:28.122                : :Chapter 05
    00:15:39.856                : :Chapter 06
    00:16:35.494                : :Chapter 07
    00:18:43.372                : :Chapter 08
    00:19:58.781                : :Chapter 09
    00:22:28.639                : :Chapter 10
    00:25:33.991                : :Chapter 11
    00:26:35.469                : :Chapter 12
    00:28:27.497                : :Chapter 13
    00:31:46.905                : :Chapter 14
    00:35:24.289                : :Chapter 15
    00:42:25.668                : :Chapter 16
    00:42:52.361                : :Chapter 17
    00:44:45.016                : :Chapter 18
    00:45:54.960                : :Chapter 19
    00:48:13.015                : :Chapter 20
    00:49:55.200                : :Chapter 21
    00:56:43.108                : :Chapter 22
    00:57:49.841                : :Chapter 23
    01:01:04.077                : :Chapter 24
    01:02:38.087                : :Chapter 25
    01:06:58.181                : :Chapter 26
    01:09:24.785                : :Chapter 27
    01:11:24.196                : :Chapter 28
    01:15:15.177                : :Chapter 29
    01:17:41.782                : :Chapter 30
    01:21:00.397                : :Chapter 31
    01:24:47.082                : :Chapter 32
    01:26:34.272                : :Chapter 33
    01:29:09.677                : :Chapter 34
    01:32:01.182                : :Chapter 35
    01:33:37.195                : :Chapter 36
    01:35:30.516                : :Chapter 37
    01:37:38.185                : :Chapter 38
    01:38:32.406                : :Chapter 39
    01:40:24.602                : :Chapter 40
    01:43:09.683                : :Chapter 41
    01:46:07.569                : :Chapter 42
    01:48:19.534                : :Chapter 43
    01:51:13.458                : :Chapter 44
    01:53:04.944                : :Chapter 45
    01:54:25.108                : :Chapter 46
    02:00:53.871                : :Chapter 47
    02:03:17.223                : :Chapter 48
    02:04:43.851                : :Chapter 49
    02:07:00.821                : :Chapter 50
    02:08:30.411                : :Chapter 51
    02:12:31.860                : :Chapter 52
    02:15:53.020                : :Chapter 53
    02:17:32.702                : :Chapter 54
    02:19:52.634                : :Chapter 55
    02:21:20.388                : :Chapter 56
    02:24:44.092                : :Chapter 57
    02:26:19.062                : :Chapter 58
    02:28:09.714                : :Chapter 59
    02:28:46.250                : :Chapter 60
    02:30:31.814                : :Chapter 61
    02:31:44.178                : :Chapter 62
    02:32:36.480                : :Chapter 63
    02:36:52.152                : :Chapter 64
    02:41:30.180                : :Chapter 65
    02:44:04.209                : :Chapter 66
    02:44:28.608                : :Chapter 67
    02:47:14.274                : :Chapter 68
    02:48:20.340                : :Chapter 69
    02:52:01.978                : :Chapter 70
    02:55:21.552                : :Chapter 71
    02:58:32.076                : :Chapter 72
    03:00:30.861                : :Chapter 73
    03:01:08.691                : :Chapter 74
    03:03:22.283                : :Chapter 75
    03:12:37.295                : :Chapter 76

  • Peso: 38.6 GiB

Sinopsis

Descargar Avatar: El camino del agua (2022) REMUX 1080p Latino. Ambientada más de una década después de los acontecimientos de la primera película, ‘Avatar: The Way of Water’ empieza contando la historia de la familia Sully (Jake, Neytiri y sus hijos), los problemas que los persiguen, lo que tienen que hacer para mantenerse a salvo, las batallas que libran para seguir con vida y las tragedias que sufren.

Español Latino EAC3 7.1 Web & AC3 5.1 BD – Ingles DTS-HD 5.1 BD

Ficha técnica

Video trailer de la película

Enlaces de descarga

Rip de Bluray

Descargar Avatar: El camino del agua (2022) REMUX 1080p Latino




Aportes de DPeliculasHDmega la pass es:dpeliculashdmega.org Aportes de CinemaniaHD la pass es:cinemaniahdd.com Aportes recientes:cinemaniahdd.net
Guardado en : Acción , Aventura , Ciencia ficción , Remux

Películas relacionadas

descargar Avatar: El camino del agua (2022) REMUX 1080p Latino Full 1080p 1080p gratis, Avatar: El camino del agua (2022) REMUX 1080p Latino Full 1080p mega 1 link, Avatar: El camino del agua (2022) REMUX 1080p Latino Full 1080p pelicula completa, descargar Avatar: El camino del agua (2022) REMUX 1080p Latino Full 1080p gratis en mega.

Avatar: El camino del agua (2022) REMUX 1080p Latino pelicula full hd, Avatar: El camino del agua (2022) REMUX 1080p Latino mega latino, Avatar: El camino del agua (2022) REMUX 1080p Latino 4k latino, Avatar: El camino del agua (2022) REMUX 1080p Latino pelicula completa, Avatar: El camino del agua (2022) REMUX 1080p Latino descargar gratis, descargar Avatar: El camino del agua (2022) REMUX 1080p Latino pelicula latino, Avatar: El camino del agua (2022) REMUX 1080p Latino 1 link mega, Avatar: El camino del agua (2022) REMUX 1080p Latino 1 link google drive, Avatar: El camino del agua (2022) REMUX 1080p Latino hd 1080p latino.
Comentarios 0