×

¿Problemas para descargar con Mozilla, EDGE? Deshabilita la opción "Abrir vinculos en una pestaña nueva" tal como lo muestra ésta imagen.

Avatar: El Camino Del Agua (2022) HD 1080p Latino

360 vistas

Información de Avatar: El Camino Del Agua (2022) HD 1080p Latino

Datos de la película

  • Calidad: 1080p
  • Audio: Español Latino AC3 5.1 WEB-DL - Ingles AC3 5.1 BLURAY
  • Subtitulos: Español Latino SRT- FORZADOS SRT
  • Resolución: 1920x1038p
  • Formato: MKV
  • Codec: H.264
  • Encoder: Melkor
  • Mediainfo: Clic para Mostrar Datos Ver
  • Avatar. El Camino Del Agua (2022) HD 1080p Latino.mkv
    Format                      : Matroska
    Format version              : Version 4
    File size                   : 6.13 GiB
    Duration                    : 3 h 12 min
    Overall bit rate            : 4 553 kb/s
    Movie name                  : Avatar. The Way of Water (2022) CinemaniaHDD.Net
    Encoded date                : UTC 2023-06-11 23:31:16
    Writing application         : mkvmerge v56.1.0 ('My Friend') 64-bit
    Writing library             : libebml v1.4.2 + libmatroska v1.6.4
    Site                        : CinemaniaHDD.Net
    Uploader                    : Melkor

    Video
    ID                          : 1
    Format                      : AVC
    Format/Info                 : Advanced Video Codec
    Format profile              : High@L4.1
    Format settings             : CABAC / 4 Ref Frames
    Format settings, CABAC      : Yes
    Format settings, Reference  : 4 frames
    Codec ID                    : V_MPEG4/ISO/AVC
    Duration                    : 3 h 12 min
    Bit rate                    : 3 500 kb/s
    Width                       : 1 920 pixels
    Height                      : 1 038 pixels
    Display aspect ratio        : 1.85:1
    Frame rate mode             : Constant
    Frame rate                  : 23.976 (24000/1001) FPS
    Color space                 : YUV
    Chroma subsampling          : 4:2:0
    Bit depth                   : 8 bits
    Scan type                   : Progressive
    Bits/(Pixel*Frame)          : 0.073
    Stream size                 : 4.66 GiB (76%)
    Title                       : HD1080p [CinemaniaHDD]
    Writing library             : x264 core 163 r3059 b684ebe0
    Encoding settings           : cabac=1 / ref=4 / deblock=1:-1:-1 / analyse=0x3:0x133 / me=umh / subme=9 / psy=1 / psy_rd=1.00:0.15 / mixed_ref=1 / me_range=16 / chroma_me=1 / trellis=2 / 8x8dct=1 / cqm=0 / deadzone=21,11 / fast_pskip=1 / chroma_qp_offset=-3 / threads=24 / lookahead_threads=2 / sliced_threads=0 / nr=0 / decimate=1 / interlaced=0 / bluray_compat=0 / constrained_intra=0 / bframes=3 / b_pyramid=2 / b_adapt=2 / b_bias=0 / direct=3 / weightb=1 / open_gop=0 / weightp=2 / keyint=240 / keyint_min=24 / scenecut=40 / intra_refresh=0 / rc_lookahead=60 / rc=abr / mbtree=1 / bitrate=3500 / ratetol=1.0 / qcomp=0.60 / qpmin=0 / qpmax=69 / qpstep=4 / vbv_maxrate=62500 / vbv_bufsize=78125 / nal_hrd=none / filler=0 / ip_ratio=1.40 / aq=1:1.00
    Default                     : Yes
    Forced                      : Yes
    Color range                 : Limited
    Color primaries             : BT.709
    Transfer characteristics    : BT.709
    Matrix coefficients         : BT.709

    Audio #1
    ID                          : 2
    Format                      : AC-3
    Format/Info                 : Audio Coding 3
    Commercial name             : Dolby Digital
    Codec ID                    : A_AC3
    Duration                    : 3 h 12 min
    Bit rate mode               : Constant
    Bit rate                    : 640 kb/s
    Channel(s)                  : 6 channels
    Channel layout              : L R C LFE Ls Rs
    Sampling rate               : 48.0 kHz
    Frame rate                  : 31.250 FPS (1536 SPF)
    Compression mode            : Lossy
    Delay relative to video     : -5 ms
    Stream size                 : 882 MiB (14%)
    Title                       : Español Latino [CinemaniaHDD]
    Language                    : Spanish
    Service kind                : Complete Main
    Default                     : Yes
    Forced                      : Yes

    Audio #2
    ID                          : 3
    Format                      : AC-3
    Format/Info                 : Audio Coding 3
    Commercial name             : Dolby Digital
    Codec ID                    : A_AC3
    Duration                    : 3 h 12 min
    Bit rate mode               : Constant
    Bit rate                    : 448 kb/s
    Channel(s)                  : 6 channels
    Channel layout              : L R C LFE Ls Rs
    Sampling rate               : 48.0 kHz
    Frame rate                  : 31.250 FPS (1536 SPF)
    Compression mode            : Lossy
    Delay relative to video     : -5 ms
    Stream size                 : 617 MiB (10%)
    Title                       : Ingles [CinemaniaHDD]
    Language                    : English
    Service kind                : Complete Main
    Default                     : No
    Forced                      : No

    Text #1
    ID                          : 4
    Format                      : UTF-8
    Codec ID                    : S_TEXT/UTF8
    Codec ID/Info               : UTF-8 Plain Text
    Duration                    : 3 h 0 min
    Bit rate                    : 0 b/s
    Count of elements           : 55
    Stream size                 : 1.15 KiB (0%)
    Title                       : Forzados-SRT [CinemaniaHDD]
    Language                    : Spanish
    Default                     : Yes
    Forced                      : Yes

    Text #2
    ID                          : 5
    Format                      : UTF-8
    Codec ID                    : S_TEXT/UTF8
    Codec ID/Info               : UTF-8 Plain Text
    Duration                    : 3 h 2 min
    Bit rate                    : 40 b/s
    Count of elements           : 2411
    Stream size                 : 53.5 KiB (0%)
    Title                       : Español-SRT [CinemaniaHDD]
    Language                    : Spanish
    Default                     : No
    Forced                      : No

    Text #3
    ID                          : 6
    Format                      : UTF-8
    Codec ID                    : S_TEXT/UTF8
    Codec ID/Info               : UTF-8 Plain Text
    Duration                    : 3 h 1 min
    Bit rate                    : 38 b/s
    Count of elements           : 2359
    Stream size                 : 51.6 KiB (0%)
    Title                       : Ingles-SRT [CinemaniaHDD]
    Language                    : English
    Default                     : No
    Forced                      : No

    Menu
    00:00:00.000                : :Chapter 1
    00:05:21.238                : :Chapter 2
    00:05:57.524                : :Chapter 3
    00:08:54.159                : :Chapter 4
    00:12:28.248                : :Chapter 5
    00:15:39.856                : :Chapter 6
    00:16:35.495                : :Chapter 7
    00:18:43.372                : :Chapter 8
    00:19:58.781                : :Chapter 9
    00:22:28.639                : :Chapter 10
    00:25:33.991                : :Chapter 11
    00:26:35.469                : :Chapter 12
    00:28:27.664                : :Chapter 13
    00:31:46.947                : :Chapter 14
    00:35:24.289                : :Chapter 15
    00:42:25.668                : :Chapter 16
    00:42:52.361                : :Chapter 17
    00:44:45.016                : :Chapter 18
    00:45:54.961                : :Chapter 19
    00:48:13.015                : :Chapter 20
    00:49:55.201                : :Chapter 21
    00:56:43.108                : :Chapter 22
    00:57:49.883                : :Chapter 23
    01:01:04.119                : :Chapter 24
    01:02:38.171                : :Chapter 25
    01:06:58.181                : :Chapter 26
    01:09:24.786                : :Chapter 27
    01:11:24.197                : :Chapter 28
    01:15:15.219                : :Chapter 29
    01:17:41.824                : :Chapter 30
    01:21:00.397                : :Chapter 31
    01:24:47.249                : :Chapter 32
    01:26:34.272                : :Chapter 33
    01:29:09.678                : :Chapter 34
    01:32:01.182                : :Chapter 35
    01:33:37.195                : :Chapter 36
    01:35:30.558                : :Chapter 37
    01:37:38.186                : :Chapter 38
    01:38:32.490                : :Chapter 39
    01:40:24.602                : :Chapter 40
    01:43:09.684                : :Chapter 41
    01:46:07.570                : :Chapter 42
    01:48:19.576                : :Chapter 43
    01:51:13.458                : :Chapter 44
    01:53:04.945                : :Chapter 45
    01:54:25.275                : :Chapter 46
    02:00:53.872                : :Chapter 47
    02:03:17.348                : :Chapter 48
    02:04:43.851                : :Chapter 49
    02:07:00.822                : :Chapter 50
    02:08:30.411                : :Chapter 51
    02:12:31.986                : :Chapter 52
    02:15:53.145                : :Chapter 53
    02:17:32.745                : :Chapter 54
    02:19:52.676                : :Chapter 55
    02:21:20.430                : :Chapter 56
    02:24:44.092                : :Chapter 57
    02:26:19.062                : :Chapter 58
    02:28:09.714                : :Chapter 59
    02:28:46.251                : :Chapter 60
    02:30:31.981                : :Chapter 61
    02:31:44.178                : :Chapter 62
    02:32:36.481                : :Chapter 63
    02:36:52.194                : :Chapter 64
    02:41:30.181                : :Chapter 65
    02:44:04.251                : :Chapter 66
    02:44:28.692                : :Chapter 67
    02:47:14.274                : :Chapter 68
    02:48:20.340                : :Chapter 69
    02:52:01.978                : :Chapter 70
    02:55:21.553                : :Chapter 71
    02:58:32.285                : :Chapter 72
    03:00:30.903                : :Chapter 73
    03:01:08.691                : :Chapter 74
    03:03:22.283                : :Chapter 75

  • Peso: 6.13 GiB

Sinopsis

Descargar Avatar: El Camino Del Agua (2022) HD 1080p Latino. Ambientada más de una década después de los acontecimientos de la primera película, ‘Avatar: The Way of Water’ empieza contando la historia de la familia Sully (Jake, Neytiri y sus hijos), los problemas que los persiguen, lo que tienen que hacer para mantenerse a salvo, las batallas que libran para seguir con vida y las tragedias que sufren.

Ficha técnica

Video trailer de la película

Enlaces de descarga

Rip de Bluray

Descargar Avatar: El Camino Del Agua (2022) HD 1080p Latino




Aportes de DPeliculasHDmega la pass es:dpeliculashdmega.org Aportes de CinemaniaHD la pass es:cinemaniahdd.com Aportes recientes:cinemaniahdd.net

Películas relacionadas

descargar Avatar: El Camino Del Agua (2022) HD 1080p Latino 1080p 1080p gratis, Avatar: El Camino Del Agua (2022) HD 1080p Latino 1080p mega 1 link, Avatar: El Camino Del Agua (2022) HD 1080p Latino 1080p pelicula completa, descargar Avatar: El Camino Del Agua (2022) HD 1080p Latino 1080p gratis en mega.

Avatar: El Camino Del Agua (2022) HD 1080p Latino pelicula full hd, Avatar: El Camino Del Agua (2022) HD 1080p Latino mega latino, Avatar: El Camino Del Agua (2022) HD 1080p Latino 4k latino, Avatar: El Camino Del Agua (2022) HD 1080p Latino pelicula completa, Avatar: El Camino Del Agua (2022) HD 1080p Latino descargar gratis, descargar Avatar: El Camino Del Agua (2022) HD 1080p Latino pelicula latino, Avatar: El Camino Del Agua (2022) HD 1080p Latino 1 link mega, Avatar: El Camino Del Agua (2022) HD 1080p Latino 1 link google drive, Avatar: El Camino Del Agua (2022) HD 1080p Latino hd 1080p latino.
Comentarios 0