×

¿Problemas para descargar con Mozilla, EDGE? Deshabilita la opción "Abrir vinculos en una pestaña nueva" tal como lo muestra ésta imagen.

Avatar (2009) REMUX 4K HDR Latino – CMHDD

233 vistas

Información de Avatar (2009) REMUX 4K HDR Latino – CMHDD

Datos de la película

  • Calidad: 4K HDR
  • Audio: Español Latino AC3 5.1 BLURAY - Ingles AC3 5.1 BLURAY
  • Subtitulos: Español Latino PGS
  • Resolución: 3840x2160p
  • Formato: MKV
  • Codec: H.264
  • Encoder: Dracarys
  • Mediainfo: Clic para Mostrar Datos Ver
  • Format                      : Matroska
    Format version              : Version 4
    File size                   : 67.7 GiB
    Duration                    : 2 h 42 min
    Overall bit rate mode       : Variable
    Overall bit rate            : 59.9 Mb/s
    Movie name                  : Avatar (2009) REMUX 4K HDR Latino - CMHDD
    Encoded date                : UTC 2023-08-16 03:18:45
    Writing application         : mkvmerge v47.0.0 ('Black Flag') 64-bit
    Writing library             : libebml v1.3.10 + libmatroska v1.5.2
    Cover                       : Yes
    Attachments                 : cover.jpg

    Video
    ID                          : 1
    Format                      : HEVC
    Format/Info                 : High Efficiency Video Coding
    Format profile              : Main 10@L5.1@High
    HDR format                  : SMPTE ST 2086, HDR10 compatible
    Codec ID                    : V_MPEGH/ISO/HEVC
    Duration                    : 2 h 42 min
    Bit rate                    : 56.9 Mb/s
    Width                       : 3 840 pixels
    Height                      : 2 160 pixels
    Display aspect ratio        : 16:9
    Frame rate mode             : Constant
    Frame rate                  : 23.976 (23976/1000) FPS
    Original frame rate         : 23.976 (24000/1001) FPS
    Color space                 : YUV
    Chroma subsampling          : 4:2:0 (Type 2)
    Bit depth                   : 10 bits
    Bits/(Pixel*Frame)          : 0.286
    Stream size                 : 64.4 GiB (95%)
    Writing library             : ATEME Titan File 3.9.6 (4.9.6.2)        
    Default                     : Yes
    Forced                      : No
    Color range                 : Limited
    Color primaries             : BT.2020
    Transfer characteristics    : PQ
    Matrix coefficients         : BT.2020 non-constant
    Mastering display color pri : BT.2020
    Mastering display luminance : min: 0.0050 cd/m2, max: 1000 cd/m2

    Audio #1
    ID                          : 2
    Format                      : AC-3
    Format/Info                 : Audio Coding 3
    Commercial name             : Dolby Digital
    Codec ID                    : A_AC3
    Duration                    : 2 h 42 min
    Bit rate mode               : Constant
    Bit rate                    : 640 kb/s
    Channel(s)                  : 6 channels
    Channel layout              : L R C LFE Ls Rs
    Sampling rate               : 48.0 kHz
    Frame rate                  : 31.250 FPS (1536 SPF)
    Compression mode            : Lossy
    Delay relative to video     : 31 ms
    Stream size                 : 742 MiB (1%)
    Language                    : English
    Service kind                : Complete Main
    Default                     : No
    Forced                      : No

    Audio #2
    ID                          : 3
    Format                      : DTS XLL
    Format/Info                 : Digital Theater Systems
    Commercial name             : DTS-HD Master Audio
    Codec ID                    : A_DTS
    Duration                    : 2 h 42 min
    Bit rate mode               : Variable
    Bit rate                    : 1 661 kb/s
    Channel(s)                  : 2 channels
    Channel layout              : L R
    Sampling rate               : 48.0 kHz
    Frame rate                  : 93.750 FPS (512 SPF)
    Bit depth                   : 24 bits
    Compression mode            : Lossless
    Stream size                 : 1.88 GiB (3%)
    Language                    : English
    Default                     : No
    Forced                      : No

    Audio #3
    ID                          : 4
    Format                      : AC-3
    Format/Info                 : Audio Coding 3
    Commercial name             : Dolby Digital
    Codec ID                    : A_AC3
    Duration                    : 2 h 42 min
    Bit rate mode               : Constant
    Bit rate                    : 640 kb/s
    Channel(s)                  : 6 channels
    Channel layout              : L R C LFE Ls Rs
    Sampling rate               : 48.0 kHz
    Frame rate                  : 31.250 FPS (1536 SPF)
    Compression mode            : Lossy
    Stream size                 : 742 MiB (1%)
    Language                    : Spanish
    Service kind                : Complete Main
    Default                     : Yes
    Forced                      : No

    Text #1
    ID                          : 5
    Format                      : PGS
    Muxing mode                 : zlib
    Codec ID                    : S_HDMV/PGS
    Codec ID/Info               : Picture based subtitle format used on BDs/HD-DVDs
    Duration                    : 2 h 33 min
    Bit rate                    : 23.5 kb/s
    Frame rate                  : 0.295 FPS
    Count of elements           : 2718
    Stream size                 : 25.8 MiB (0%)
    Language                    : Spanish
    Default                     : No
    Forced                      : No

    Text #2
    ID                          : 6
    Format                      : PGS
    Muxing mode                 : zlib
    Codec ID                    : S_HDMV/PGS
    Codec ID/Info               : Picture based subtitle format used on BDs/HD-DVDs
    Duration                    : 1 h 49 min
    Bit rate                    : 1 737 b/s
    Frame rate                  : 0.025 FPS
    Count of elements           : 164
    Stream size                 : 1.36 MiB (0%)
    Language                    : Spanish
    Default                     : Yes
    Forced                      : No

    Menu
    00:00:00.000                : en:Capítulo 01
    00:06:17.960                : en:Capítulo 02
    00:07:53.598                : en:Capítulo 03
    00:12:04.890                : en:Capítulo 04
    00:14:00.464                : en:Capítulo 05
    00:20:00.574                : en:Capítulo 06
    00:24:00.230                : en:Capítulo 07
    00:26:53.278                : en:Capítulo 08
    00:31:41.899                : en:Capítulo 09
    00:33:33.428                : en:Capítulo 10
    00:35:43.849                : en:Capítulo 11
    00:43:31.859                : en:Capítulo 12
    00:49:23.627                : en:Capítulo 13
    00:54:29.974                : en:Capítulo 14
    00:59:56.050                : en:Capítulo 15
    01:05:10.197                : en:Capítulo 16
    01:11:36.416                : en:Capítulo 17
    01:15:11.006                : en:Capítulo 18
    01:20:29.115                : en:Capítulo 19
    01:24:41.909                : en:Capítulo 20
    01:36:04.800                : en:Capítulo 21
    01:37:55.786                : en:Capítulo 22
    01:44:33.099                : en:Capítulo 23
    01:48:15.488                : en:Capítulo 24
    01:53:54.869                : en:Capítulo 25
    01:55:32.883                : en:Capítulo 26
    01:58:38.819                : en:Capítulo 27
    02:02:05.567                : en:Capítulo 28
    02:05:33.859                : en:Capítulo 29
    02:10:01.835                : en:Capítulo 30
    02:16:07.283                : en:Capítulo 31
    02:19:50.840                : en:Capítulo 32
    02:25:50.324                : en:Capítulo 33
    02:31:14.064                : en:Capítulo 34
    02:35:21.895                : en:Capítulo 35

  • Peso: 67.7 GiB

Sinopsis

Año 2154. Jake Sully , un exmarine en silla de ruedas, es enviado al planeta Pandora, donde se ha creado el programa Avatar, gracias al cual los seres humanos pueden controlar de forma remota un cuerpo biológico con apariencia y genética de la especie nativa. Pronto se encontrará con la encrucijada entre seguir las órdenes de sus superiores o defender al mundo que le ha acogido y siente como suyo.

Ficha técnica

Video trailer de la película

Enlaces de descarga

Rip de Bluray

Descargar Avatar (2009) REMUX 4K HDR Latino – CMHDD


Aportes de DPeliculasHDmega la pass es:dpeliculashdmega.org Aportes de CinemaniaHD la pass es:cinemaniahdd.com Aportes recientes:cinemaniahdd.net

Películas relacionadas

descargar Avatar (2009) REMUX 4K HDR Latino – CMHDD 4K HDR 1080p gratis, Avatar (2009) REMUX 4K HDR Latino – CMHDD 4K HDR mega 1 link, Avatar (2009) REMUX 4K HDR Latino – CMHDD 4K HDR pelicula completa, descargar Avatar (2009) REMUX 4K HDR Latino – CMHDD 4K HDR gratis en mega.

Avatar (2009) REMUX 4K HDR Latino – CMHDD pelicula full hd, Avatar (2009) REMUX 4K HDR Latino – CMHDD mega latino, Avatar (2009) REMUX 4K HDR Latino – CMHDD 4k latino, Avatar (2009) REMUX 4K HDR Latino – CMHDD pelicula completa, Avatar (2009) REMUX 4K HDR Latino – CMHDD descargar gratis, descargar Avatar (2009) REMUX 4K HDR Latino – CMHDD pelicula latino, Avatar (2009) REMUX 4K HDR Latino – CMHDD 1 link mega, Avatar (2009) REMUX 4K HDR Latino – CMHDD 1 link google drive, Avatar (2009) REMUX 4K HDR Latino – CMHDD hd 1080p latino.
Comentarios 0