×

¿Problemas para descargar con Mozilla, EDGE? Deshabilita la opción "Abrir vinculos en una pestaña nueva" tal como lo muestra ésta imagen.

Avatar (2009) [EXTENDED] [Re-Grade] 4K HDR Latino – CMHDD

1.356 vistas

Información de Avatar (2009) [EXTENDED] [Re-Grade] 4K HDR Latino – CMHDD

Datos de la película

  • Calidad: 4K HDR
  • Audio: Español Latino AC3 5.1 BLURAY - Ingles DTS 5.1 BLURAY
  • Subtitulos: Español Latino PGS
  • Resolución: 3840x2160p
  • Formato: MKV
  • Codec: HEVC
  • Encoder: Dracarys
  • Mediainfo: Clic para Mostrar Datos Ver
  • Format                      : Matroska
    Format version              : Version 4
    File size                   : 86.4 GiB
    Duration                    : 2 h 58 min
    Overall bit rate mode       : Variable
    Overall bit rate            : 69.4 Mb/s
    Movie name                  : Avatar (2009) [EXTENDED] [Re-Grade] 4K HDR Latino - CMHDD
    Encoded date                : UTC 2021-01-19 16:19:26
    Writing application         : mkvmerge v51.0.0 ('I Wish') 64-bit
    Writing library             : libebml v1.4.0 + libmatroska v1.6.2

    Video
    ID                          : 1
    Format                      : HEVC
    Format/Info                 : High Efficiency Video Coding
    Format profile              : Main 10@L5.1@High
    HDR format                  : SMPTE ST 2086, HDR10 compatible
    Codec ID                    : V_MPEGH/ISO/HEVC
    Duration                    : 2 h 58 min
    Bit rate                    : 64.9 Mb/s
    Width                       : 3 840 pixels
    Height                      : 2 160 pixels
    Display aspect ratio        : 16:9
    Frame rate mode             : Constant
    Frame rate                  : 23.976 (24000/1001) FPS
    Color space                 : YUV
    Chroma subsampling          : 4:2:0
    Bit depth                   : 10 bits
    Bits/(Pixel*Frame)          : 0.326
    Stream size                 : 80.7 GiB (93%)
    Language                    : English
    Default                     : Yes
    Forced                      : No
    Color range                 : Limited
    Color primaries             : BT.2020
    Transfer characteristics    : PQ
    Matrix coefficients         : BT.2020 non-constant
    Mastering display color pri : Display P3
    Mastering display luminance : min: 0.0050 cd/m2, max: 4000 cd/m2
    Maximum Content Light Level : 3000 cd/m2
    Maximum Frame-Average Light : 600 cd/m2
    SEI_rbsp_stop_one_bit       : Missing

    Audio #1
    ID                          : 2
    Format                      : AC-3
    Format/Info                 : Audio Coding 3
    Commercial name             : Dolby Digital
    Codec ID                    : A_AC3
    Duration                    : 2 h 58 min
    Bit rate mode               : Constant
    Bit rate                    : 448 kb/s
    Channel(s)                  : 6 channels
    Channel layout              : L R C LFE Ls Rs
    Sampling rate               : 48.0 kHz
    Frame rate                  : 31.250 FPS (1536 SPF)
    Compression mode            : Lossy
    Stream size                 : 571 MiB (1%)
    Language                    : Spanish
    Service kind                : Complete Main
    Default                     : Yes
    Forced                      : No

    Audio #2
    ID                          : 3
    Format                      : DTS XLL
    Format/Info                 : Digital Theater Systems
    Commercial name             : DTS-HD Master Audio
    Codec ID                    : A_DTS
    Duration                    : 2 h 58 min
    Bit rate mode               : Variable
    Bit rate                    : 4 133 kb/s
    Channel(s)                  : 6 channels
    Channel layout              : C L R Ls Rs LFE
    Sampling rate               : 48.0 kHz
    Frame rate                  : 93.750 FPS (512 SPF)
    Bit depth                   : 24 bits
    Compression mode            : Lossless
    Stream size                 : 5.14 GiB (6%)
    Language                    : English
    Default                     : No
    Forced                      : No

    Text #1
    ID                          : 4
    Format                      : PGS
    Muxing mode                 : zlib
    Codec ID                    : S_HDMV/PGS
    Codec ID/Info               : Picture based subtitle format used on BDs/HD-DVDs
    Duration                    : 2 h 57 min
    Bit rate                    : 23.6 kb/s
    Count of elements           : 2784
    Stream size                 : 29.9 MiB (0%)
    Language                    : Spanish
    Default                     : No
    Forced                      : No

    Text #2
    ID                          : 5
    Format                      : PGS
    Muxing mode                 : zlib
    Codec ID                    : S_HDMV/PGS
    Codec ID/Info               : Picture based subtitle format used on BDs/HD-DVDs
    Duration                    : 2 h 44 min
    Bit rate                    : 1 596 b/s
    Count of elements           : 162
    Stream size                 : 1.88 MiB (0%)
    Language                    : Spanish
    Default                     : Yes
    Forced                      : No

    Menu
    00:00:00.000                : en:Lost Soul
    00:05:25.575                : en:A New World
    00:10:24.457                : en:You Are Not in Kansas Anymore
    00:11:47.916                : en:"This Is Your Avatar Now, Jake."
    00:15:59.208                : en:"This Is Why We're Here..."
    00:23:54.892                : en:Meeting Trudy
    00:24:40.000                : en:Colonel Quaritch
    00:27:54.548                : en:First Sortie
    00:30:27.617                : en:Abandoned Schoolhouse
    00:32:04.464                : en:Thanator Chase
    00:37:16.526                : en:A Sign
    00:39:08.054                : en:Viperwolves
    00:41:18.476                : en:Neytiri
    00:49:16.912                : en:The Omaticaya Clan
    00:55:42.214                : en:Covert Report
    01:01:09.416                : en:The Hallelujah Mountains
    01:07:03.227                : en:Learn Fast or Die
    01:11:50.222                : en:A Mother's Pain
    01:18:07.891                : en:Banshee Rookery
    01:22:38.120                : en:First Flight
    01:26:12.709                : en:Clan Hunt
    01:27:54.436                : en:Last Shadow
    01:33:00.408                : en:A Son of the Omaticaya
    01:37:36.642                : en:Willow Glade Destruction
    01:46:49.236                : en:Conflict Escalation
    01:50:02.596                : en:"You Will Never Be One of the People!"
    01:51:53.582                : en:Assault on Home Tree
    01:58:30.895                : en:Aftermath
    02:02:13.284                : en:Escape From Hell's Gate
    02:07:51.664                : en:"There's Something We Gotta Do..."
    02:09:30.554                : en:Toruk Macto
    02:12:36.615                : en:"She's Real"
    02:16:03.363                : en:Recuiting the Clans
    02:19:31.655                : en:Preamble to Battle
    02:23:59.631                : en:Battle for Pandora
    02:32:13.291                : en:Fall of the Heroes
    02:34:52.908                : en:Eywa
    02:40:02.259                : en:Quaritch Fight
    02:46:30.814                : en:"I See You"
    02:46:48.498                : en:My Brother
    02:48:56.793                : en:Transformation
    02:51:32.073                : en:End Credits

  • Peso: 86.4 GiB

Sinopsis

Año 2154. Jake Sully, un ex-marine condenado a vivir en una silla de ruedas, sigue siendo un auténtico guerrero. Por ello ha sido designado para ir a Pandora, donde algunas empresas están extrayendo un mineral extraño que podría resolver la crisis energética de la Tierra. Para contrarrestar la toxicidad de la atmósfera de Pandora, se ha creado el programa Avatar, gracias al cual los seres humanos mantienen sus conciencias unidas a un avatar: un cuerpo biológico controlado de forma remota que puede sobrevivir en el aire letal. Esos cuerpos han sido creados con ADN humano mezclado con ADN de los nativos de Pandora, los Na’vi. Convertido en avatar, Jake puede caminar otra vez. Su misión consiste en infiltrarse entre los Na’vi, que se han convertido en el mayor obstáculo para la extracción del mineral. Pero cuando Neytiri, una bella Na’vi, salva la vida de Jake, todo cambia: Jake, tras superar ciertas pruebas, es admitido en su clan.

Ficha técnica

Video trailer de la película

Enlaces de descarga

Rip de Bluray

Descargar Avatar (2009) [EXTENDED] [Re-Grade] 4K HDR Latino – CMHDD


Aportes de DPeliculasHDmega la pass es:dpeliculashdmega.org Aportes de CinemaniaHD la pass es:cinemaniahdd.com

Películas relacionadas

  • Corazón de tinta (2008) Full HD 1080p Latino

    Corazón de tinta (2008) Full HD 1080p Latino

    2008
    Corazón de tinta (2008) Full HD 1080p Latino

    1h 46m 2008

    Descargar Corazón de tinta (2008) Full HD 1080p Latino. Mortimer “Mo” Folchart y su hija de 12 años,...

    Director: Sharon Mansfield

    Género: Aventura

    Actores: Terry Cavanagh

  • Corazón de tinta (2008) REMUX 1080p Latino

    Corazón de tinta (2008) REMUX 1080p Latino

    2008
    Corazón de tinta (2008) REMUX 1080p Latino

    1h 46m 2008

    Descargar Corazón de tinta (2008) REMUX 1080p Latino. Mortimer “Mo” Folchart y su hija de 12 años,...

    Director: Sharon Mansfield

    Género: Aventura

    Actores: Tereza Srbová

  • Juego de espías (2001) 1080p Latino

    Juego de espías (2001) 1080p Latino

    2001
    Juego de espías (2001) 1080p Latino

    2h 6m 2001

    Descargar Juego de espías (2001) 1080p Latino. Corre el año 1991, y al veterano agente de la CIA Nathan...

    Director: Tony Scott

    Género: Acción

    Actores: Zsolt Zágoni

  • Juego de espías (2001) Full HD 1080p Latino

    Juego de espías (2001) Full HD 1080p Latino

    2001
    Juego de espías (2001) Full HD 1080p Latino

    2h 6m 2001

    Descargar Juego de espías (2001) Full HD 1080p Latino. Corre el año 1991, y al veterano agente de la...

    Director: Tony Scott

    Género: Acción

    Actores: Zsolt Zágoni

  • Juego de espías (2001) REMUX 1080p Latino

    Juego de espías (2001) REMUX 1080p Latino

    2001
    Juego de espías (2001) REMUX 1080p Latino

    1h 55m 2001

    Descargar Juego de espías (2001) REMUX 1080p Latino. El día de su jubilación, el veterano agente de...

    Director: Tony Scott

    Género: Acción

    Actores: Zsolt Zágoni

descargar Avatar (2009) [EXTENDED] [Re-Grade] 4K HDR Latino – CMHDD 4K HDR 1080p gratis, Avatar (2009) [EXTENDED] [Re-Grade] 4K HDR Latino – CMHDD 4K HDR mega 1 link, Avatar (2009) [EXTENDED] [Re-Grade] 4K HDR Latino – CMHDD 4K HDR pelicula completa, descargar Avatar (2009) [EXTENDED] [Re-Grade] 4K HDR Latino – CMHDD 4K HDR gratis en mega.

Avatar (2009) [EXTENDED] [Re-Grade] 4K HDR Latino – CMHDD pelicula full hd, Avatar (2009) [EXTENDED] [Re-Grade] 4K HDR Latino – CMHDD mega latino, Avatar (2009) [EXTENDED] [Re-Grade] 4K HDR Latino – CMHDD 4k latino, Avatar (2009) [EXTENDED] [Re-Grade] 4K HDR Latino – CMHDD pelicula completa, Avatar (2009) [EXTENDED] [Re-Grade] 4K HDR Latino – CMHDD descargar gratis, descargar Avatar (2009) [EXTENDED] [Re-Grade] 4K HDR Latino – CMHDD pelicula latino, Avatar (2009) [EXTENDED] [Re-Grade] 4K HDR Latino – CMHDD 1 link mega, Avatar (2009) [EXTENDED] [Re-Grade] 4K HDR Latino – CMHDD 1 link google drive, Avatar (2009) [EXTENDED] [Re-Grade] 4K HDR Latino – CMHDD hd 1080p latino.
Comentarios 0