×

¿Problemas para descargar con Mozilla, EDGE? Deshabilita la opción "Abrir vinculos en una pestaña nueva" tal como lo muestra ésta imagen.

Avatar (2009) EXTENDED 1080p Latino

241 vistas

Información de Avatar (2009) EXTENDED 1080p Latino

Datos de la película

  • Calidad: 1080p
  • Audio: Español Latino AC3 5.1 BLURAY - Ingles AC3 5.1 BLURAY
  • Subtitulos: Español Latino SRT - Ingles SRT
  • Resolución: 1920x1080p
  • Formato: MKV
  • Codec: H.264
  • Encoder: CinefiloCool
  • Mediainfo: Clic para Mostrar Datos Ver
  • Avatar (2009) EXTENDED 1080p Latino-CMHDD.mkv
    Format                      : Matroska
    Format version              : Version 4
    File size                   : 7.41 GiB
    Duration                    : 2 h 58 min
    Overall bit rate            : 5 954 kb/s
    Movie name                  : Avatar (2009) CinemaniaHDD.Net
    Encoded date                : UTC 2023-06-13 05:45:24
    Writing application         : mkvmerge v56.1.0 ('My Friend') 64-bit
    Writing library             : libebml v1.4.2 + libmatroska v1.6.4
    Attachments                 : CINEMANIAHD.png

    Video
    ID                          : 1
    Format                      : AVC
    Format/Info                 : Advanced Video Codec
    Format profile              : High@L5
    Format settings             : CABAC / 8 Ref Frames
    Format settings, CABAC      : Yes
    Format settings, Reference  : 8 frames
    Codec ID                    : V_MPEG4/ISO/AVC
    Duration                    : 2 h 58 min
    Bit rate                    : 5 056 kb/s
    Width                       : 1 920 pixels
    Height                      : 1 080 pixels
    Display aspect ratio        : 16:9
    Frame rate mode             : Constant
    Frame rate                  : 23.976 (24000/1001) FPS
    Color space                 : YUV
    Chroma subsampling          : 4:2:0
    Bit depth                   : 8 bits
    Scan type                   : Progressive
    Bits/(Pixel*Frame)          : 0.102
    Stream size                 : 6.29 GiB (85%)
    Title                       : HD1080p [CinemaniaHDD]
    Writing library             : x264 core 158 r2984 3759fcb
    Encoding settings           : cabac=1 / ref=8 / deblock=1:-3:-3 / analyse=0x3:0x133 / me=umh / subme=11 / psy=1 / psy_rd=1.00:0.00 / mixed_ref=1 / me_range=24 / chroma_me=1 / trellis=2 / 8x8dct=1 / cqm=0 / deadzone=21,11 / fast_pskip=0 / chroma_qp_offset=-2 / threads=18 / lookahead_threads=2 / sliced_threads=0 / nr=0 / decimate=0 / interlaced=0 / bluray_compat=0 / constrained_intra=0 / bframes=8 / b_pyramid=2 / b_adapt=2 / b_bias=0 / direct=3 / weightb=1 / open_gop=0 / weightp=2 / keyint=250 / keyint_min=23 / scenecut=40 / intra_refresh=0 / rc_lookahead=60 / rc=crf / mbtree=1 / crf=24.0 / qcomp=0.60 / qpmin=0 / qpmax=69 / qpstep=4 / ip_ratio=1.40 / aq=1:1.00
    Default                     : Yes
    Forced                      : Yes

    Audio #1
    ID                          : 2
    Format                      : AC-3
    Format/Info                 : Audio Coding 3
    Commercial name             : Dolby Digital
    Codec ID                    : A_AC3
    Duration                    : 2 h 58 min
    Bit rate mode               : Constant
    Bit rate                    : 448 kb/s
    Channel(s)                  : 6 channels
    Channel layout              : L R C LFE Ls Rs
    Sampling rate               : 48.0 kHz
    Frame rate                  : 31.250 FPS (1536 SPF)
    Compression mode            : Lossy
    Stream size                 : 571 MiB (8%)
    Title                       : Español Latino [CinemaniaHDD]
    Language                    : Spanish
    Service kind                : Complete Main
    Default                     : Yes
    Forced                      : Yes

    Audio #2
    ID                          : 3
    Format                      : AC-3
    Format/Info                 : Audio Coding 3
    Commercial name             : Dolby Digital
    Codec ID                    : A_AC3
    Duration                    : 2 h 58 min
    Bit rate mode               : Constant
    Bit rate                    : 448 kb/s
    Channel(s)                  : 6 channels
    Channel layout              : L R C LFE Ls Rs
    Sampling rate               : 48.0 kHz
    Frame rate                  : 31.250 FPS (1536 SPF)
    Compression mode            : Lossy
    Stream size                 : 571 MiB (8%)
    Title                       : Ingles [CinemaniaHDD]
    Language                    : English
    Service kind                : Complete Main
    Default                     : No
    Forced                      : No

    Text #1
    ID                          : 4
    Format                      : UTF-8
    Codec ID                    : S_TEXT/UTF8
    Codec ID/Info               : UTF-8 Plain Text
    Duration                    : 2 h 31 min
    Bit rate                    : 1 b/s
    Count of elements           : 87
    Stream size                 : 1.99 KiB (0%)
    Title                       : Forzados-SRT [CinemaniaHDD]
    Language                    : Spanish
    Default                     : Yes
    Forced                      : Yes

    Text #2
    ID                          : 5
    Format                      : UTF-8
    Codec ID                    : S_TEXT/UTF8
    Codec ID/Info               : UTF-8 Plain Text
    Duration                    : 2 h 49 min
    Bit rate                    : 38 b/s
    Count of elements           : 1497
    Stream size                 : 48.3 KiB (0%)
    Title                       : Español-SRT [CinemaniaHDD]
    Language                    : Spanish
    Default                     : No
    Forced                      : No

    Text #3
    ID                          : 6
    Format                      : UTF-8
    Codec ID                    : S_TEXT/UTF8
    Codec ID/Info               : UTF-8 Plain Text
    Duration                    : 2 h 49 min
    Bit rate                    : 40 b/s
    Count of elements           : 1492
    Stream size                 : 50.2 KiB (0%)
    Title                       : Ingles-SRT [CinemaniaHDD]
    Language                    : English
    Default                     : No
    Forced                      : No

    Menu
    00:00:00.000                : Lost Soul
    00:05:25.575                : A New World
    00:10:12.278                : You Are Not In Kansas Anymore
    00:11:47.915                : "This Is Your Avatar Now, Jake ."
    00:15:59.208                : "This Is Why We're Here..."
    00:17:54.782                : First Awakening
    00:23:54.891                : Colonel Quaritch
    00:27:54.547                : First Sortie
    00:30:27.617                : Abandoned Schoolhouse
    00:32:27.904                : Thanator Chase
    00:37:16.525                : A Sign
    00:39:08.053                : Viperwolves
    00:41:18.475                : Neytiri
    00:49:16.912                : The Omaticaya Clan
    00:55:42.213                : Cover Report
    01:01:09.415                : The Hallelujah Mountains
    01:07:03.227                : Learn Fast Or Die
    01:11:50.222                : A Mother's Pain
    01:15:53.799                : Banshee Rookery
    01:22:38.119                : First Flight
    01:26:12.709                : Clan Hunt
    01:27:42.298                : Last Shadow
    01:33:00.407                : A Son Of the Omaticaya
    01:37:36.892                : Willow Glade Destruction
    01:44:15.290                : Conflict Escalation
    01:50:02.595                : "You Will Never Be One Of The People!"
    01:51:53.581                : Assault On Hometree
    01:58:30.895                : Aftermath
    02:02:13.284                : Escape From Hell's Gate
    02:07:51.663                : There's Something We Gotta Do..."
    02:09:30.554                : Toruk Macto
    02:12:36.615                : "She's Real"
    02:16:03.363                : Recruiting The Clans
    02:19:31.654                : Preamble To Battle
    02:23:59.630                : Battle For Pandora
    02:30:05.079                : Fall Of The Heroes
    02:33:56.852                : Eywa
    02:40:02.259                : Quartich Fight
    02:45:33.214                : "I See You"
    02:46:48.498                : My Brother
    02:48:56.793                : Transformation
    02:51:32.073                : End Credits

  • Peso: 7.41 GiB

Sinopsis

Descargar Avatar (2009) EXTENDED 1080p Latino. Año 2154. Jake Sully , un exmarine en silla de ruedas, es enviado al planeta Pandora, donde se ha creado el programa Avatar, gracias al cual los seres humanos pueden controlar de forma remota un cuerpo biológico con apariencia y genética de la especie nativa. Pronto se encontrará con la encrucijada entre seguir las órdenes de sus superiores o defender al mundo que le ha acogido y siente como suyo.

Ficha técnica

Video trailer de la película

Enlaces de descarga

Rip de Bluray

Descargar Avatar (2009) EXTENDED 1080p Latino




Aportes de DPeliculasHDmega la pass es:dpeliculashdmega.org Aportes de CinemaniaHD la pass es:cinemaniahdd.com Aportes recientes:cinemaniahdd.net

Películas relacionadas

descargar Avatar (2009) EXTENDED 1080p Latino 1080p 1080p gratis, Avatar (2009) EXTENDED 1080p Latino 1080p mega 1 link, Avatar (2009) EXTENDED 1080p Latino 1080p pelicula completa, descargar Avatar (2009) EXTENDED 1080p Latino 1080p gratis en mega.

Avatar (2009) EXTENDED 1080p Latino pelicula full hd, Avatar (2009) EXTENDED 1080p Latino mega latino, Avatar (2009) EXTENDED 1080p Latino 4k latino, Avatar (2009) EXTENDED 1080p Latino pelicula completa, Avatar (2009) EXTENDED 1080p Latino descargar gratis, descargar Avatar (2009) EXTENDED 1080p Latino pelicula latino, Avatar (2009) EXTENDED 1080p Latino 1 link mega, Avatar (2009) EXTENDED 1080p Latino 1 link google drive, Avatar (2009) EXTENDED 1080p Latino hd 1080p latino.
Comentarios 0