×

¿Problemas para descargar con Mozilla, EDGE? Deshabilita la opción "Abrir vinculos en una pestaña nueva" tal como lo muestra ésta imagen.

Avatar (2009) EXTENDED Full HD 1080p Latino – CMHDD

1.721 vistas

Información de Avatar (2009) EXTENDED Full HD 1080p Latino – CMHDD

Datos de la película

  • Calidad: Full 1080p
  • Audio: Español Latino AC3 5.1 BLURAY - Ingles DTS 5.1 BLURAY
  • Subtitulos: Español Latino PGS
  • Resolución: 1920x1080p
  • Formato: MKV
  • Codec: H.264
  • Encoder: Dracarys
  • Mediainfo: Clic para Mostrar Datos Ver
  • Format                      : Matroska
    Format version              : Version 4
    File size                   : 17.5 GiB
    Duration                    : 2 h 58 min
    Overall bit rate mode       : Variable
    Overall bit rate            : 14.0 Mb/s
    Movie name                  : Avatar (2009) [EXTENDED] Full HD 1080p Latino - CMHDD
    Encoded date                : UTC 2021-01-22 01:30:41
    Writing application         : mkvmerge v51.0.0 ('I Wish') 64-bit
    Writing library             : libebml v1.4.0 + libmatroska v1.6.2

    Video
    ID                          : 1
    Format                      : AVC
    Format/Info                 : Advanced Video Codec
    Format profile              : High@L4.1
    Format settings             : CABAC / 4 Ref Frames
    Format settings, CABAC      : Yes
    Format settings, Reference  : 4 frames
    Codec ID                    : V_MPEG4/ISO/AVC
    Duration                    : 2 h 58 min
    Bit rate                    : 9 435 kb/s
    Width                       : 1 920 pixels
    Height                      : 1 080 pixels
    Display aspect ratio        : 16:9
    Frame rate mode             : Constant
    Frame rate                  : 23.976 (24000/1001) FPS
    Color space                 : YUV
    Chroma subsampling          : 4:2:0
    Bit depth                   : 8 bits
    Scan type                   : Progressive
    Bits/(Pixel*Frame)          : 0.190
    Stream size                 : 11.7 GiB (67%)
    Writing library             : x264 core 157 r2935 545de2f
    Encoding settings           : cabac=1 / ref=4 / deblock=1:0:0 / analyse=0x3:0x133 / me=tesa / subme=11 / psy=1 / psy_rd=1.00:0.00 / mixed_ref=1 / me_range=24 / chroma_me=1 / trellis=2 / 8x8dct=1 / cqm=0 / deadzone=21,11 / fast_pskip=0 / chroma_qp_offset=-2 / threads=24 / lookahead_threads=6 / sliced_threads=0 / nr=0 / decimate=1 / interlaced=0 / bluray_compat=0 / constrained_intra=0 / bframes=16 / b_pyramid=2 / b_adapt=2 / b_bias=0 / direct=3 / weightb=1 / open_gop=0 / weightp=2 / keyint=240 / keyint_min=24 / scenecut=40 / intra_refresh=0 / rc_lookahead=60 / rc=crf / mbtree=1 / crf=20.0 / qcomp=0.60 / qpmin=0 / qpmax=69 / qpstep=4 / vbv_maxrate=62500 / vbv_bufsize=78125 / crf_max=0.0 / nal_hrd=none / filler=0 / ip_ratio=1.40 / aq=1:1.00
    Default                     : Yes
    Forced                      : No
    Color range                 : Limited
    Color primaries             : BT.709
    Transfer characteristics    : BT.709
    Matrix coefficients         : BT.709

    Audio #1
    ID                          : 2
    Format                      : AC-3
    Format/Info                 : Audio Coding 3
    Commercial name             : Dolby Digital
    Codec ID                    : A_AC3
    Duration                    : 2 h 58 min
    Bit rate mode               : Constant
    Bit rate                    : 448 kb/s
    Channel(s)                  : 6 channels
    Channel layout              : L R C LFE Ls Rs
    Sampling rate               : 48.0 kHz
    Frame rate                  : 31.250 FPS (1536 SPF)
    Compression mode            : Lossy
    Stream size                 : 571 MiB (3%)
    Language                    : Spanish
    Service kind                : Complete Main
    Default                     : Yes
    Forced                      : No

    Audio #2
    ID                          : 3
    Format                      : DTS XLL
    Format/Info                 : Digital Theater Systems
    Commercial name             : DTS-HD Master Audio
    Codec ID                    : A_DTS
    Duration                    : 2 h 58 min
    Bit rate mode               : Variable
    Bit rate                    : 4 133 kb/s
    Channel(s)                  : 6 channels
    Channel layout              : C L R Ls Rs LFE
    Sampling rate               : 48.0 kHz
    Frame rate                  : 93.750 FPS (512 SPF)
    Bit depth                   : 24 bits
    Compression mode            : Lossless
    Stream size                 : 5.14 GiB (29%)
    Language                    : English
    Default                     : No
    Forced                      : No

    Text #1
    ID                          : 4
    Format                      : PGS
    Muxing mode                 : zlib
    Codec ID                    : S_HDMV/PGS
    Codec ID/Info               : Picture based subtitle format used on BDs/HD-DVDs
    Duration                    : 2 h 57 min
    Bit rate                    : 23.6 kb/s
    Count of elements           : 2784
    Stream size                 : 29.9 MiB (0%)
    Language                    : Spanish
    Default                     : No
    Forced                      : No

    Text #2
    ID                          : 5
    Format                      : PGS
    Muxing mode                 : zlib
    Codec ID                    : S_HDMV/PGS
    Codec ID/Info               : Picture based subtitle format used on BDs/HD-DVDs
    Duration                    : 2 h 44 min
    Bit rate                    : 1 596 b/s
    Count of elements           : 162
    Stream size                 : 1.88 MiB (0%)
    Language                    : Spanish
    Default                     : Yes
    Forced                      : No

    Menu
    00:00:00.000                : :Lost Soul
    00:05:25.575                : :A New World
    00:10:12.278                : :You Are Not In Kansas Anymore
    00:11:47.916                : :"This Is Your Avatar Now, Jake ."
    00:15:59.208                : :"This Is Why We're Here..."
    00:17:54.782                : :First Awakening
    00:23:54.892                : :Colonel Quaritch
    00:27:54.548                : :First Sortie
    00:30:27.617                : :Abandoned Schoolhouse
    00:32:27.904                : :Thanator Chase
    00:37:16.526                : :A Sign
    00:39:08.054                : :Viperwolves
    00:41:18.476                : :Neytiri
    00:49:16.912                : :The Omaticaya Clan
    00:55:42.214                : :Cover Report
    01:01:09.416                : :The Hallelujah Mountains
    01:07:03.228                : :Learn Fast Or Die
    01:11:50.223                : :A Mother's Pain
    01:15:53.799                : :Banshee Rookery
    01:22:38.120                : :First Flight
    01:26:12.709                : :Clan Hunt
    01:27:42.299                : :Last Shadow
    01:33:00.408                : :A Son Of the Omaticaya
    01:37:36.893                : :Willow Glade Destruction
    01:44:15.291                : :Conflict Escalation
    01:50:02.596                : :"You Will Never Be One Of The People!"
    01:51:53.582                : :Assault On Hometree
    01:58:30.895                : :Aftermath
    02:02:13.284                : :Escape From Hell's Gate
    02:07:51.664                : :There's Something We Gotta Do..."
    02:09:30.554                : :Toruk Macto
    02:12:36.615                : :"She's Real"
    02:16:03.364                : :Recruiting The Clans
    02:19:31.655                : :Preamble To Battle
    02:23:59.631                : :Battle For Pandora
    02:30:05.079                : :Fall Of The Heroes
    02:33:56.853                : :Eywa
    02:40:02.259                : :Quartich Fight
    02:45:33.215                : :"I See You"
    02:46:48.499                : :My Brother
    02:48:56.793                : :Transformation
    02:51:32.073                : :End Credits

  • Peso: 17.5 GiB

Sinopsis

Descargar Avatar (2009) EXTENDED Full HD 1080p Latino – CMHDD. Año 2154. Jake Sully, un ex-marine condenado a vivir en una silla de ruedas, sigue siendo un auténtico guerrero. Por ello ha sido designado para ir a Pandora, donde algunas empresas están extrayendo un mineral extraño que podría resolver la crisis energética de la Tierra. Para contrarrestar la toxicidad de la atmósfera de Pandora, se ha creado el programa Avatar, gracias al cual los seres humanos mantienen sus conciencias unidas a un avatar: un cuerpo biológico controlado de forma remota que puede sobrevivir en el aire letal. Esos cuerpos han sido creados con ADN humano mezclado con ADN de los nativos de Pandora, los Na’vi. Convertido en avatar, Jake puede caminar otra vez. Su misión consiste en infiltrarse entre los Na’vi, que se han convertido en el mayor obstáculo para la extracción del mineral. Pero cuando Neytiri, una bella Na’vi, salva la vida de Jake, todo cambia: Jake, tras superar ciertas pruebas, es admitido en su clan.

RESUBIDA!!!

Ficha técnica

Video trailer de la película

Enlaces de descarga

Rip de Bluray

Descargar Avatar (2009) EXTENDED Full HD 1080p Latino – CMHDD




Aportes de DPeliculasHDmega la pass es:dpeliculashdmega.org Aportes de CinemaniaHD la pass es:cinemaniahdd.com Aportes recientes:cinemaniahdd.net

Películas relacionadas

  • Dune: Parte dos (2024) WEB-DL 4K UHD HDR Latino

    Dune: Parte dos (2024) WEB-DL 4K UHD HDR Latino

    2024
    Dune: Parte dos (2024) WEB-DL 4K UHD HDR Latino

    2h 47m 2024

    Descargar Dune: Parte dos (2024) WEB-DL 4K UHD HDR Latino. Sigue el viaje mítico de Paul Atreides mientras...

    Director: Vera Janisch

    Género: 4K HDR

    Actores: Zouhair Elakkari

  • Dune: Parte dos (2024) AMZN WEB-DL 1080p Latino

    Dune: Parte dos (2024) AMZN WEB-DL 1080p Latino

    2024
    Dune: Parte dos (2024) AMZN WEB-DL 1080p Latino

    2h 47m 2024

    Descargar Dune: Parte dos (2024) AMZN WEB-DL 1080p Latino. Sigue el viaje mítico de Paul Atreides mientras...

    Director: Vera Janisch

    Género: Aventura

    Actores: Zouhair Elakkari

  • La Duquesa (2008) Full HD 1080p Latino-CMHDD

    La Duquesa (2008) Full HD 1080p Latino-CMHDD

    2008
    La Duquesa (2008) Full HD 1080p Latino-CMHDD

    1h 51m 2008

    Descargar La Duquesa (2008) Full HD 1080p Latino-CMHDD. Hermosa, glamurosa y adorada por el pueblo, Georgiana...

    Director: Saul Dibb

    Género: Drama

    Actores: Thomas Arnold

descargar Avatar (2009) EXTENDED Full HD 1080p Latino – CMHDD Full 1080p 1080p gratis, Avatar (2009) EXTENDED Full HD 1080p Latino – CMHDD Full 1080p mega 1 link, Avatar (2009) EXTENDED Full HD 1080p Latino – CMHDD Full 1080p pelicula completa, descargar Avatar (2009) EXTENDED Full HD 1080p Latino – CMHDD Full 1080p gratis en mega.

Avatar (2009) EXTENDED Full HD 1080p Latino – CMHDD pelicula full hd, Avatar (2009) EXTENDED Full HD 1080p Latino – CMHDD mega latino, Avatar (2009) EXTENDED Full HD 1080p Latino – CMHDD 4k latino, Avatar (2009) EXTENDED Full HD 1080p Latino – CMHDD pelicula completa, Avatar (2009) EXTENDED Full HD 1080p Latino – CMHDD descargar gratis, descargar Avatar (2009) EXTENDED Full HD 1080p Latino – CMHDD pelicula latino, Avatar (2009) EXTENDED Full HD 1080p Latino – CMHDD 1 link mega, Avatar (2009) EXTENDED Full HD 1080p Latino – CMHDD 1 link google drive, Avatar (2009) EXTENDED Full HD 1080p Latino – CMHDD hd 1080p latino.
Comentarios 0