×

¿Problemas para descargar con Mozilla, EDGE? Deshabilita la opción "Abrir vinculos en una pestaña nueva" tal como lo muestra ésta imagen.

Aurora Teagarden Mysteries: An Inheritance to Die For (2019) WEB-DL 1080p Latino

417 vistas

Información de Aurora Teagarden Mysteries: An Inheritance to Die For (2019) WEB-DL 1080p Latino

Datos de la película

  • Calidad: WEBDL
  • Audio: Español Latino AC3 2.0 - Ingles AC3 2.0
  • Subtitulos: No
  • Resolución: 1920x1080
  • Formato: MKV
  • Codec: H.264
  • Encoder: cinemaniahdd
  • Mediainfo: Clic para Mostrar Datos Ver
  • Un misterio para Aurora Teagarden. Una herencia para morirse (2019) WEB-DL 1080p Latino [CNMNHDD].mkv
    Format                      : Matroska
    Format version              : Version 4
    File size                   : 1.38 GiB
    Duration                    : 1 h 25 min
    Overall bit rate mode       : Variable
    Overall bit rate            : 2 323 kb/s
    Movie name                  : Un misterio para Aurora Teagarden. Una herencia para morirse (2019) - CinemaniaHDD.Net
    Encoded date                : UTC 2021-03-24 00:22:08
    Writing application         : mkvmerge v46.0.0 ('No Deeper Escape') 64-bit
    Writing library             : libebml v1.3.10 + libmatroska v1.5.2

    Video
    ID                          : 1
    Format                      : AVC
    Format/Info                 : Advanced Video Codec
    Format profile              : Main@L4
    Format settings             : CABAC / 1 Ref Frames
    Format settings, CABAC      : Yes
    Format settings, Reference  : 1 frame
    Codec ID                    : V_MPEG4/ISO/AVC
    Duration                    : 1 h 25 min
    Bit rate mode               : Variable
    Bit rate                    : 2 064 kb/s
    Maximum bit rate            : 6 000 kb/s
    Width                       : 1 920 pixels
    Height                      : 1 080 pixels
    Display aspect ratio        : 16:9
    Frame rate mode             : Constant
    Frame rate                  : 30.000 FPS
    Color space                 : YUV
    Chroma subsampling          : 4:2:0
    Bit depth                   : 8 bits
    Scan type                   : Progressive
    Bits/(Pixel*Frame)          : 0.033
    Stream size                 : 1.23 GiB (89%)
    Title                       : CinemaniaHDD.Net
    Language                    : Spanish
    Default                     : Yes
    Forced                      : No

    Audio #1
    ID                          : 2
    Format                      : AAC LC
    Format/Info                 : Advanced Audio Codec Low Complexity
    Codec ID                    : A_AAC-2
    Duration                    : 1 h 25 min
    Bit rate                    : 128 kb/s
    Channel(s)                  : 2 channels
    Channel layout              : L R
    Sampling rate               : 44.1 kHz
    Frame rate                  : 43.066 FPS (1024 SPF)
    Compression mode            : Lossy
    Stream size                 : 77.9 MiB (6%)
    Title                       : Español latino [CinemaniaHDD]
    Language                    : Spanish
    Default                     : Yes
    Forced                      : Yes

    Audio #2
    ID                          : 3
    Format                      : AAC LC
    Format/Info                 : Advanced Audio Codec Low Complexity
    Codec ID                    : A_AAC-2
    Duration                    : 1 h 25 min
    Bit rate                    : 128 kb/s
    Channel(s)                  : 2 channels
    Channel layout              : L R
    Sampling rate               : 44.1 kHz
    Frame rate                  : 43.066 FPS (1024 SPF)
    Compression mode            : Lossy
    Stream size                 : 77.9 MiB (6%)
    Title                       : Inglés [CinemaniaHDD]
    Language                    : English
    Default                     : No
    Forced                      : No

     

  • Peso: 1.38 GiB

Sinopsis

Aurora es bibliotecaria, detective y dama de honor en la boda de Lizzy, donde la acaudalada tía de Lizzy muere envenenada. El testamento resulta ser una sorpresa desagradable para el hijo. Aurora y el Club de los Asesinatos Verdaderos investigan.

Ficha técnica

  • Titulo original: Aurora Teagarden Mysteries: An Inheritance to Die For
  • Fecha de lanzamiento: 11-08-2019 (United States of America)
  • Director: Michael Robison
  • Género: Misterio, Película de TV

Video trailer de la película

Enlaces de descarga

Rip de Bluray

Descargar Aurora Teagarden Mysteries: An Inheritance to Die For (2019) WEB-DL 1080p Latino




Aportes de DPeliculasHDmega la pass es:dpeliculashdmega.org Aportes de CinemaniaHD la pass es:cinemaniahdd.com Aportes recientes:cinemaniahdd.net
Guardado en : Misterio , Película de TV

Películas relacionadas

descargar Aurora Teagarden Mysteries: An Inheritance to Die For (2019) WEB-DL 1080p Latino WEBDL 1080p gratis, Aurora Teagarden Mysteries: An Inheritance to Die For (2019) WEB-DL 1080p Latino WEBDL mega 1 link, Aurora Teagarden Mysteries: An Inheritance to Die For (2019) WEB-DL 1080p Latino WEBDL pelicula completa, descargar Aurora Teagarden Mysteries: An Inheritance to Die For (2019) WEB-DL 1080p Latino WEBDL gratis en mega.

Aurora Teagarden Mysteries: An Inheritance to Die For (2019) WEB-DL 1080p Latino pelicula full hd, Aurora Teagarden Mysteries: An Inheritance to Die For (2019) WEB-DL 1080p Latino mega latino, Aurora Teagarden Mysteries: An Inheritance to Die For (2019) WEB-DL 1080p Latino 4k latino, Aurora Teagarden Mysteries: An Inheritance to Die For (2019) WEB-DL 1080p Latino pelicula completa, Aurora Teagarden Mysteries: An Inheritance to Die For (2019) WEB-DL 1080p Latino descargar gratis, descargar Aurora Teagarden Mysteries: An Inheritance to Die For (2019) WEB-DL 1080p Latino pelicula latino, Aurora Teagarden Mysteries: An Inheritance to Die For (2019) WEB-DL 1080p Latino 1 link mega, Aurora Teagarden Mysteries: An Inheritance to Die For (2019) WEB-DL 1080p Latino 1 link google drive, Aurora Teagarden Mysteries: An Inheritance to Die For (2019) WEB-DL 1080p Latino hd 1080p latino.
Comentarios 0