×

¿Problemas para descargar con Mozilla, EDGE? Deshabilita la opción "Abrir vinculos en una pestaña nueva" tal como lo muestra ésta imagen.

Escucha tu destino (2007) REMUX 1080p Latino

180 vistas

Información de Escucha tu destino (2007) REMUX 1080p Latino

Datos de la película

  • Calidad: Full 1080p
  • Audio: Se especifica abajo de la Sinopsis
  • Subtitulos: Español Latino SRT- FORZADOS SRT
  • Resolución: 1920x1080p
  • Formato: MKV
  • Codec: H.264
  • Encoder: CinefiloCool
  • Mediainfo: Clic para Mostrar Datos Ver
  • Escucha Tu Destino (2007) REMUX 1080p Latino-CMHDD.mkv
    Format                      : Matroska
    Format version              : Version 4
    File size                   : 22.5 GiB
    Duration                    : 1 h 54 min
    Overall bit rate mode       : Variable
    Overall bit rate            : 28.2 Mb/s
    Movie name                  : August Rush (2007) CinemaniaHDD.Net
    Encoded date                : UTC 2021-02-04 06:07:19
    Writing application         : mkvmerge v51.0.0 ('I Wish') 64-bit
    Writing library             : libebml v1.4.0 + libmatroska v1.6.2
    Attachments                 : CINEMANIAHD.png

    Video
    ID                          : 1
    Format                      : AVC
    Format/Info                 : Advanced Video Codec
    Format profile              : High@L4.1
    Format settings             : CABAC / 4 Ref Frames
    Format settings, CABAC      : Yes
    Format settings, Reference  : 4 frames
    Codec ID                    : V_MPEG4/ISO/AVC
    Duration                    : 1 h 54 min
    Bit rate mode               : Variable
    Bit rate                    : 25.0 Mb/s
    Maximum bit rate            : 40.0 Mb/s
    Width                       : 1 920 pixels
    Height                      : 1 080 pixels
    Display aspect ratio        : 16:9
    Frame rate mode             : Constant
    Frame rate                  : 23.976 (24000/1001) FPS
    Color space                 : YUV
    Chroma subsampling          : 4:2:0
    Bit depth                   : 8 bits
    Scan type                   : Progressive
    Bits/(Pixel*Frame)          : 0.503
    Stream size                 : 19.9 GiB (89%)
    Title                       : REMUX HD1080p [CinemaniaHDD]
    Default                     : Yes
    Forced                      : Yes
    Color range                 : Limited
    Color primaries             : BT.709
    Transfer characteristics    : BT.709
    Matrix coefficients         : BT.709

    Audio #1
    ID                          : 2
    Format                      : AC-3
    Format/Info                 : Audio Coding 3
    Commercial name             : Dolby Digital
    Codec ID                    : A_AC3
    Duration                    : 1 h 53 min
    Bit rate mode               : Constant
    Bit rate                    : 640 kb/s
    Channel(s)                  : 6 channels
    Channel layout              : L R C LFE Ls Rs
    Sampling rate               : 48.0 kHz
    Frame rate                  : 31.250 FPS (1536 SPF)
    Compression mode            : Lossy
    Stream size                 : 520 MiB (2%)
    Title                       : Español Latino ORG WB [CinemaniaHDD]
    Language                    : Spanish
    Service kind                : Complete Main
    Default                     : No
    Forced                      : Yes

    Audio #2
    ID                          : 3
    Format                      : DTS XLL
    Format/Info                 : Digital Theater Systems
    Commercial name             : DTS-HD Master Audio
    Codec ID                    : A_DTS
    Duration                    : 1 h 53 min
    Bit rate mode               : Variable
    Bit rate                    : 2 278 kb/s
    Channel(s)                  : 6 channels
    Channel layout              : C L R Ls Rs LFE
    Sampling rate               : 48.0 kHz
    Frame rate                  : 93.750 FPS (512 SPF)
    Bit depth                   : 16 bits
    Compression mode            : Lossless
    Stream size                 : 1.81 GiB (8%)
    Title                       : Ingles [CinemaniaHDD]
    Language                    : English
    Default                     : No
    Forced                      : No

    Audio #3
    ID                          : 4
    Format                      : AC-3
    Format/Info                 : Audio Coding 3
    Commercial name             : Dolby Digital
    Codec ID                    : A_AC3
    Duration                    : 1 h 53 min
    Bit rate mode               : Constant
    Bit rate                    : 256 kb/s
    Channel(s)                  : 2 channels
    Channel layout              : L R
    Sampling rate               : 48.0 kHz
    Frame rate                  : 31.250 FPS (1536 SPF)
    Compression mode            : Lossy
    Stream size                 : 208 MiB (1%)
    Title                       : Español Latino REDUB QLT [CinemaniaHDD]
    Language                    : Spanish
    Service kind                : Complete Main
    Default                     : Yes
    Forced                      : Yes

    Text #1
    ID                          : 5
    Format                      : UTF-8
    Codec ID                    : S_TEXT/UTF8
    Codec ID/Info               : UTF-8 Plain Text
    Duration                    : 1 h 39 min
    Bit rate                    : 1 b/s
    Count of elements           : 34
    Stream size                 : 1.07 KiB (0%)
    Title                       : Forzados-SRT [CinemaniaHDD]
    Language                    : Spanish
    Default                     : Yes
    Forced                      : Yes

    Text #2
    ID                          : 6
    Format                      : UTF-8
    Codec ID                    : S_TEXT/UTF8
    Codec ID/Info               : UTF-8 Plain Text
    Duration                    : 1 h 46 min
    Bit rate                    : 40 b/s
    Count of elements           : 1076
    Stream size                 : 31.7 KiB (0%)
    Title                       : Español-SRT [CinemaniaHDD]
    Language                    : Spanish
    Default                     : No
    Forced                      : No

    Text #3
    ID                          : 7
    Format                      : UTF-8
    Codec ID                    : S_TEXT/UTF8
    Codec ID/Info               : UTF-8 Plain Text
    Duration                    : 1 h 46 min
    Bit rate                    : 36 b/s
    Count of elements           : 897
    Stream size                 : 28.5 KiB (0%)
    Title                       : Ingles-SRT [CinemaniaHDD]
    Language                    : English
    Default                     : No
    Forced                      : No

    Menu
    00:00:00.000                : :1. Hearing the Music
    00:04:38.778                : :2. String Section Credits
    00:09:54.760                : :3. Lyla Meets Louis
    00:13:49.828                : :4. I Have a Family
    00:17:43.729                : :5. Seperate Ways
    00:20:57.089                : :6. Let Me Go
    00:23:53.765                : :7. Gone
    00:25:51.716                : :8. Urban Soundscape
    00:29:04.576                : :9. Arthur X
    00:31:59.083                : :10. Flashes From the Past
    00:35:28.626                : :11. This Is Our Home
    00:38:07.618                : :12. Wizard's Wages
    00:41:33.157                : :13. Music in the Night
    00:45:15.045                : :14. Walk Out Again
    00:48:38.248                : :15. Father's Choice
    00:50:38.702                : :16. August Rush
    00:54:01.571                : :17. Maybe It's About Time
    00:58:11.821                : :18. The Raid
    01:02:45.762                : :19. Searchers
    01:07:50.566                : :20. This Is Him
    01:09:21.824                : :21. Composer at Work
    01:14:21.290                : :22. Attuned to New York
    01:18:56.565                : :23. Waxing Rhapsodic
    01:21:42.397                : :24. Rehearsal Over
    01:24:50.418                : :25. Duet
    01:29:06.007                : :26. Never Quit on Your Music
    01:31:36.491                : :27. In Concert
    01:34:59.193                : :28. Drawn to the Melody
    01:39:05.439                : :29. Rush Rhapsody
    01:44:06.573                : :30. All You Have to Do
    01:46:53.407                : :31. End Credits

  • Peso: 22.5 GiB

Sinopsis

Descargar Escucha tu destino (2007) REMUX 1080p Latino. Un joven guitarrista irlandés (Jonathan Rhys Meyers) y una violonchelista (Keri Russell) pasan una romántica e inolvidable noche de verano en Nueva York, pero el azar los separa. De su breve encuentro nace August (Freddie Highmore), un niño que, por un destino fatal, va a parar a un orfanato, donde pasa una dura infancia. Con sólo once años, se gana la vida como músico callejero, bajo la tutela de un siniestro y extraño personaje (Robin Williams) que trata de explotarlo. El niño pronto se revela como un músico genial, un nuevo Mozart, que se servirá de su talento para encontrar a sus padres.

Audio Español Latino AC3 5.1 Doblaje Original WB + AC3 2.0 Redoblaje Quality – Ingles DTS-HD 5.1 Bluray

Nota:
Proximamente Para Usuarios Free, Disponible Solo Para VIP!! 😀

Ficha técnica

Video trailer de la película

Enlaces de descarga

Rip de Bluray

Descargar Escucha tu destino (2007) REMUX 1080p Latino




Aportes de DPeliculasHDmega la pass es:dpeliculashdmega.org Aportes de CinemaniaHD la pass es:cinemaniahdd.com
Guardado en : Drama , Familia , Música , Remux

Películas relacionadas

descargar Escucha tu destino (2007) REMUX 1080p Latino Full 1080p 1080p gratis, Escucha tu destino (2007) REMUX 1080p Latino Full 1080p mega 1 link, Escucha tu destino (2007) REMUX 1080p Latino Full 1080p pelicula completa, descargar Escucha tu destino (2007) REMUX 1080p Latino Full 1080p gratis en mega.

Escucha tu destino (2007) REMUX 1080p Latino pelicula full hd, Escucha tu destino (2007) REMUX 1080p Latino mega latino, Escucha tu destino (2007) REMUX 1080p Latino 4k latino, Escucha tu destino (2007) REMUX 1080p Latino pelicula completa, Escucha tu destino (2007) REMUX 1080p Latino descargar gratis, descargar Escucha tu destino (2007) REMUX 1080p Latino pelicula latino, Escucha tu destino (2007) REMUX 1080p Latino 1 link mega, Escucha tu destino (2007) REMUX 1080p Latino 1 link google drive, Escucha tu destino (2007) REMUX 1080p Latino hd 1080p latino.
Comentarios 0