×

¿Problemas para descargar con Mozilla, EDGE? Deshabilita la opción "Abrir vinculos en una pestaña nueva" tal como lo muestra ésta imagen.

Escucha tu destino (2007) Full HD 1080p Latino

315 vistas

Información de Escucha tu destino (2007) Full HD 1080p Latino

Datos de la película

  • Calidad: Full 1080p
  • Audio: Se especifica abajo de la Sinopsis
  • Subtitulos: Español Latino SRT- FORZADOS SRT
  • Resolución: 1920x1080p
  • Formato: MKV
  • Codec: H.264
  • Encoder: CinefiloCool
  • Mediainfo: Clic para Mostrar Datos Ver
  • Escucha Tu Destino (2007) Full HD 1080p Latino-CMHDD.mkv
    Format                      : Matroska
    Format version              : Version 4
    File size                   : 8.68 GiB
    Duration                    : 1 h 54 min
    Overall bit rate            : 10.9 Mb/s
    Movie name                  : August Rush (2007) CinemaniaHDD.Net
    Encoded date                : UTC 2021-06-23 03:40:18
    Writing application         : mkvmerge v56.1.0 ('My Friend') 64-bit
    Writing library             : libebml v1.4.2 + libmatroska v1.6.4
    Attachments                 : CINEMANIAHD.png

    Video
    ID                          : 1
    Format                      : AVC
    Format/Info                 : Advanced Video Codec
    Format profile              : High@L4.1
    Format settings             : CABAC / 4 Ref Frames
    Format settings, CABAC      : Yes
    Format settings, Reference  : 4 frames
    Codec ID                    : V_MPEG4/ISO/AVC
    Duration                    : 1 h 54 min
    Bit rate                    : 8 491 kb/s
    Width                       : 1 920 pixels
    Height                      : 1 080 pixels
    Display aspect ratio        : 16:9
    Frame rate mode             : Constant
    Frame rate                  : 23.976 (24000/1001) FPS
    Color space                 : YUV
    Chroma subsampling          : 4:2:0
    Bit depth                   : 8 bits
    Scan type                   : Progressive
    Bits/(Pixel*Frame)          : 0.171
    Stream size                 : 6.77 GiB (78%)
    Title                       : Full HD1080p [CinemaniaHDD]
    Writing library             : x264 core 157 r2935 545de2f
    Encoding settings           : cabac=1 / ref=4 / deblock=1:0:0 / analyse=0x3:0x133 / me=tesa / subme=11 / psy=1 / psy_rd=1.00:0.00 / mixed_ref=1 / me_range=24 / chroma_me=1 / trellis=2 / 8x8dct=1 / cqm=0 / deadzone=21,11 / fast_pskip=0 / chroma_qp_offset=-2 / threads=24 / lookahead_threads=6 / sliced_threads=0 / nr=0 / decimate=1 / interlaced=0 / bluray_compat=0 / constrained_intra=0 / bframes=16 / b_pyramid=2 / b_adapt=2 / b_bias=0 / direct=3 / weightb=1 / open_gop=0 / weightp=2 / keyint=240 / keyint_min=24 / scenecut=40 / intra_refresh=0 / rc_lookahead=60 / rc=crf / mbtree=1 / crf=20.0 / qcomp=0.60 / qpmin=0 / qpmax=69 / qpstep=4 / vbv_maxrate=62500 / vbv_bufsize=78125 / crf_max=0.0 / nal_hrd=none / filler=0 / ip_ratio=1.40 / aq=1:1.00
    Default                     : Yes
    Forced                      : Yes
    Color range                 : Limited
    Color primaries             : BT.709
    Transfer characteristics    : BT.709
    Matrix coefficients         : BT.709

    Audio #1
    ID                          : 2
    Format                      : AC-3
    Format/Info                 : Audio Coding 3
    Commercial name             : Dolby Digital
    Codec ID                    : A_AC3
    Duration                    : 1 h 53 min
    Bit rate mode               : Constant
    Bit rate                    : 640 kb/s
    Channel(s)                  : 6 channels
    Channel layout              : L R C LFE Ls Rs
    Sampling rate               : 48.0 kHz
    Frame rate                  : 31.250 FPS (1536 SPF)
    Compression mode            : Lossy
    Stream size                 : 520 MiB (6%)
    Title                       : Español Latino ORG WB [CinemaniaHDD]
    Language                    : Spanish
    Service kind                : Complete Main
    Default                     : Yes
    Forced                      : Yes

    Audio #2
    ID                          : 3
    Format                      : DTS
    Format/Info                 : Digital Theater Systems
    Codec ID                    : A_DTS
    Duration                    : 1 h 53 min
    Bit rate mode               : Constant
    Bit rate                    : 1 509 kb/s
    Channel(s)                  : 6 channels
    Channel layout              : C L R Ls Rs LFE
    Sampling rate               : 48.0 kHz
    Frame rate                  : 93.750 FPS (512 SPF)
    Bit depth                   : 24 bits
    Compression mode            : Lossy
    Stream size                 : 1.20 GiB (14%)
    Title                       : Ingles [CinemaniaHDD]
    Language                    : English
    Default                     : No
    Forced                      : No

    Audio #3
    ID                          : 4
    Format                      : AC-3
    Format/Info                 : Audio Coding 3
    Commercial name             : Dolby Digital
    Codec ID                    : A_AC3
    Duration                    : 1 h 53 min
    Bit rate mode               : Constant
    Bit rate                    : 256 kb/s
    Channel(s)                  : 2 channels
    Channel layout              : L R
    Sampling rate               : 48.0 kHz
    Frame rate                  : 31.250 FPS (1536 SPF)
    Compression mode            : Lossy
    Stream size                 : 208 MiB (2%)
    Title                       : Español Latino REDUB QLT [CinemaniaHDD]
    Language                    : Spanish
    Service kind                : Complete Main
    Default                     : No
    Forced                      : No

    Text #1
    ID                          : 5
    Format                      : UTF-8
    Codec ID                    : S_TEXT/UTF8
    Codec ID/Info               : UTF-8 Plain Text
    Duration                    : 1 h 39 min
    Bit rate                    : 1 b/s
    Count of elements           : 34
    Stream size                 : 1.07 KiB (0%)
    Title                       : Forzados-SRT [CinemaniaHDD]
    Language                    : Spanish
    Default                     : Yes
    Forced                      : Yes

    Text #2
    ID                          : 6
    Format                      : UTF-8
    Codec ID                    : S_TEXT/UTF8
    Codec ID/Info               : UTF-8 Plain Text
    Duration                    : 1 h 46 min
    Bit rate                    : 40 b/s
    Count of elements           : 1076
    Stream size                 : 31.7 KiB (0%)
    Title                       : Español-SRT [CinemaniaHDD]
    Language                    : Spanish
    Default                     : No
    Forced                      : No

    Text #3
    ID                          : 7
    Format                      : UTF-8
    Codec ID                    : S_TEXT/UTF8
    Codec ID/Info               : UTF-8 Plain Text
    Duration                    : 1 h 46 min
    Bit rate                    : 36 b/s
    Count of elements           : 897
    Stream size                 : 28.5 KiB (0%)
    Title                       : Ingles-SRT [CinemaniaHDD]
    Language                    : English
    Default                     : No
    Forced                      : No

    Menu
    00:00:00.000                : :1. Hearing the Music
    00:04:38.778                : :2. String Section Credits
    00:09:54.760                : :3. Lyla Meets Louis
    00:13:49.828                : :4. I Have a Family
    00:17:43.729                : :5. Seperate Ways
    00:20:57.089                : :6. Let Me Go
    00:23:53.765                : :7. Gone
    00:25:51.716                : :8. Urban Soundscape
    00:29:04.576                : :9. Arthur X
    00:31:59.083                : :10. Flashes From the Past
    00:35:28.626                : :11. This Is Our Home
    00:38:07.618                : :12. Wizard's Wages
    00:41:33.157                : :13. Music in the Night
    00:45:15.045                : :14. Walk Out Again
    00:48:38.248                : :15. Father's Choice
    00:50:38.702                : :16. August Rush
    00:54:01.571                : :17. Maybe It's About Time
    00:58:11.821                : :18. The Raid
    01:02:45.762                : :19. Searchers
    01:07:50.566                : :20. This Is Him
    01:09:21.824                : :21. Composer at Work
    01:14:21.290                : :22. Attuned to New York
    01:18:56.565                : :23. Waxing Rhapsodic
    01:21:42.397                : :24. Rehearsal Over
    01:24:50.418                : :25. Duet
    01:29:06.007                : :26. Never Quit on Your Music
    01:31:36.491                : :27. In Concert
    01:34:59.193                : :28. Drawn to the Melody
    01:39:05.439                : :29. Rush Rhapsody
    01:44:06.573                : :30. All You Have to Do
    01:46:53.407                : :31. End Credits

  • Peso: 8.68 GiB

Sinopsis

Descargar Escucha tu destino (2007) Full HD 1080p Latino. Un joven guitarrista irlandés (Jonathan Rhys Meyers) y una violonchelista (Keri Russell) pasan una romántica e inolvidable noche de verano en Nueva York, pero el azar los separa. De su breve encuentro nace August (Freddie Highmore), un niño que, por un destino fatal, va a parar a un orfanato, donde pasa una dura infancia. Con sólo once años, se gana la vida como músico callejero, bajo la tutela de un siniestro y extraño personaje (Robin Williams) que trata de explotarlo. El niño pronto se revela como un músico genial, un nuevo Mozart, que se servirá de su talento para encontrar a sus padres.

Audio Español Latino AC3 5.1 Doblaje Original WB + AC3 2.0 Redoblaje Quality – Ingles DTS 5.1 Bluray

Ficha técnica

Video trailer de la película

Enlaces de descarga

Rip de Bluray

Descargar Escucha tu destino (2007) Full HD 1080p Latino




Aportes de DPeliculasHDmega la pass es:dpeliculashdmega.org Aportes de CinemaniaHD la pass es:cinemaniahdd.com

Películas relacionadas

  • Noche sin paz (2022) PLACEBO Full HD 1080p Latino

    Noche sin paz (2022) PLACEBO Full HD 1080p Latino

    2022
    Noche sin paz (2022) PLACEBO Full HD 1080p Latino

    1h 41m 2022

    Descargar Noche sin paz (2022) PLACEBO Full HD 1080p Latino. Cuando un equipo de mercenarios irrumpe...

    Director: Tyshana Hobson

    Género: Acción

    Actores: Yoon Cha-Lee

  • Narvik (2022) NF WEB-DL 1080p Latino

    Narvik (2022) NF WEB-DL 1080p Latino

    2022
    Narvik (2022) NF WEB-DL 1080p Latino

    1h 48m 2022

    Descargar Narvik (2022) NF WEB-DL 1080p Latino. Abril de 1940. Los ojos del mundo están puestos en Narvik,...

    Director: Suzanne Svae-Johansen

    Género: Acción

    Actores: Torfinn Nag

  • Groundhog Day (1993) REMUX 4K HDR Latino – CMHDD

    Groundhog Day (1993) REMUX 4K HDR Latino – CMHDD

    1993
    Groundhog Day (1993) REMUX 4K HDR Latino – CMHDD

    1h 41m 1993

    Phil, hombre del tiempo de una cadena de televisión, es enviado un año más a Punxstawnwey, a cubrir...

    Director: Sam Hoffman

    Género: Comedia

    Actores: Willie Garson

descargar Escucha tu destino (2007) Full HD 1080p Latino Full 1080p 1080p gratis, Escucha tu destino (2007) Full HD 1080p Latino Full 1080p mega 1 link, Escucha tu destino (2007) Full HD 1080p Latino Full 1080p pelicula completa, descargar Escucha tu destino (2007) Full HD 1080p Latino Full 1080p gratis en mega.

Escucha tu destino (2007) Full HD 1080p Latino pelicula full hd, Escucha tu destino (2007) Full HD 1080p Latino mega latino, Escucha tu destino (2007) Full HD 1080p Latino 4k latino, Escucha tu destino (2007) Full HD 1080p Latino pelicula completa, Escucha tu destino (2007) Full HD 1080p Latino descargar gratis, descargar Escucha tu destino (2007) Full HD 1080p Latino pelicula latino, Escucha tu destino (2007) Full HD 1080p Latino 1 link mega, Escucha tu destino (2007) Full HD 1080p Latino 1 link google drive, Escucha tu destino (2007) Full HD 1080p Latino hd 1080p latino.
Comentarios 0