×

¿Problemas para descargar con Mozilla, EDGE? Deshabilita la opción "Abrir vinculos en una pestaña nueva" tal como lo muestra ésta imagen.

Audrey (2020) HD 1080p Latino

470 vistas

Información de Audrey (2020) HD 1080p Latino

Datos de la película

  • Calidad: 1080p
  • Audio: Español Latino AC3 2.0 WEB-DL - Ingles AC3 5.1 BLURAY
  • Subtitulos: Español Latino SRT- FORZADOS SRT
  • Resolución: 1920x1080p
  • Formato: MKV
  • Codec: H.264
  • Encoder: Melkor
  • Mediainfo: Clic para Mostrar Datos Ver
  • Audrey (2020) HD 1080p Latino.mkv
    Format                      : Matroska
    Format version              : Version 4
    File size                   : 2.87 GiB
    Duration                    : 1 h 40 min
    Overall bit rate            : 4 084 kb/s
    Movie name                  : Audrey (2020) CinemaniaHDD.Net
    Encoded date                : UTC 2022-06-10 02:28:06
    Writing application         : mkvmerge v56.1.0 ('My Friend') 64-bit
    Writing library             : libebml v1.4.2 + libmatroska v1.6.4
    Attachments                 : CINEMANIAHD.png

    Video
    ID                          : 1
    Format                      : AVC
    Format/Info                 : Advanced Video Codec
    Format profile              : High@L4.1
    Format settings             : CABAC / 4 Ref Frames
    Format settings, CABAC      : Yes
    Format settings, Reference  : 4 frames
    Codec ID                    : V_MPEG4/ISO/AVC
    Duration                    : 1 h 40 min
    Bit rate                    : 3 500 kb/s
    Width                       : 1 920 pixels
    Height                      : 1 080 pixels
    Display aspect ratio        : 16:9
    Frame rate mode             : Constant
    Frame rate                  : 23.976 (24000/1001) FPS
    Color space                 : YUV
    Chroma subsampling          : 4:2:0
    Bit depth                   : 8 bits
    Scan type                   : Progressive
    Bits/(Pixel*Frame)          : 0.070
    Stream size                 : 2.38 GiB (83%)
    Title                       : HD1080p [CinemaniaHDD]
    Writing library             : x264 core 163 r3059 b684ebe0
    Encoding settings           : cabac=1 / ref=4 / deblock=1:-1:-1 / analyse=0x3:0x133 / me=umh / subme=9 / psy=1 / psy_rd=1.00:0.15 / mixed_ref=1 / me_range=16 / chroma_me=1 / trellis=2 / 8x8dct=1 / cqm=0 / deadzone=21,11 / fast_pskip=1 / chroma_qp_offset=-3 / threads=24 / lookahead_threads=2 / sliced_threads=0 / nr=0 / decimate=1 / interlaced=0 / bluray_compat=0 / constrained_intra=0 / bframes=3 / b_pyramid=2 / b_adapt=2 / b_bias=0 / direct=3 / weightb=1 / open_gop=0 / weightp=2 / keyint=240 / keyint_min=24 / scenecut=40 / intra_refresh=0 / rc_lookahead=60 / rc=abr / mbtree=1 / bitrate=3500 / ratetol=1.0 / qcomp=0.60 / qpmin=0 / qpmax=69 / qpstep=4 / vbv_maxrate=62500 / vbv_bufsize=78125 / nal_hrd=none / filler=0 / ip_ratio=1.40 / aq=1:1.00
    Default                     : Yes
    Forced                      : Yes
    Color range                 : Limited
    Color primaries             : BT.709
    Transfer characteristics    : BT.709
    Matrix coefficients         : BT.709

    Audio #1
    ID                          : 2
    Format                      : AC-3
    Format/Info                 : Audio Coding 3
    Commercial name             : Dolby Digital
    Codec ID                    : A_AC3
    Duration                    : 1 h 40 min
    Bit rate mode               : Constant
    Bit rate                    : 256 kb/s
    Channel(s)                  : 2 channels
    Channel layout              : L R
    Sampling rate               : 48.0 kHz
    Frame rate                  : 31.250 FPS (1536 SPF)
    Compression mode            : Lossy
    Delay relative to video     : -5 ms
    Stream size                 : 185 MiB (6%)
    Title                       : Español Latino [CinemaniaHDD]
    Language                    : Spanish
    Service kind                : Complete Main
    Default                     : Yes
    Forced                      : Yes

    Audio #2
    ID                          : 3
    Format                      : AC-3
    Format/Info                 : Audio Coding 3
    Commercial name             : Dolby Digital
    Codec ID                    : A_AC3
    Duration                    : 1 h 40 min
    Bit rate mode               : Constant
    Bit rate                    : 448 kb/s
    Channel(s)                  : 6 channels
    Channel layout              : L R C LFE Ls Rs
    Sampling rate               : 48.0 kHz
    Frame rate                  : 31.250 FPS (1536 SPF)
    Compression mode            : Lossy
    Delay relative to video     : -5 ms
    Stream size                 : 323 MiB (11%)
    Title                       : Ingles [CinemaniaHDD]
    Language                    : English
    Service kind                : Complete Main
    Default                     : No
    Forced                      : No

    Text #1
    ID                          : 4
    Format                      : UTF-8
    Codec ID                    : S_TEXT/UTF8
    Codec ID/Info               : UTF-8 Plain Text
    Duration                    : 1 h 26 min
    Bit rate                    : 3 b/s
    Count of elements           : 62
    Stream size                 : 2.18 KiB (0%)
    Title                       : Forzados-SRT [CinemaniaHDD]
    Language                    : Spanish
    Default                     : Yes
    Forced                      : Yes

    Text #2
    ID                          : 5
    Format                      : UTF-8
    Codec ID                    : S_TEXT/UTF8
    Codec ID/Info               : UTF-8 Plain Text
    Duration                    : 1 h 36 min
    Bit rate                    : 85 b/s
    Count of elements           : 1339
    Stream size                 : 59.9 KiB (0%)
    Title                       : Español-SRT [CinemaniaHDD]
    Language                    : Spanish
    Default                     : No
    Forced                      : No

    Menu
    00:00:00.000                : :Chapter 01
    00:16:51.928                : :Chapter 02
    00:30:29.119                : :Chapter 03
    00:50:41.372                : :Chapter 04
    01:06:00.748                : :Chapter 05
    01:23:35.052                : :Chapter 06
    01:37:21.669                : :Chapter 07

  • Peso: 2.87 GiB

Sinopsis

Descargar Audrey (2020) HD 1080p Latino. Documental sobre la icónica actriz Audrey Hepburn, una de las mayores estrellas de Hollywood de la historia del cine. Una mirada a su faceta más íntima, la de una persona que dedicó gran parte de su vida a cuidar de los demás.

Ficha técnica

  • Titulo original: Audrey
  • Fecha de lanzamiento: 30-11-2020 (Switzerland, United States of America)
  • Director: Helena Coan
  • Género: Documental, HD 1080p

Video trailer de la película

Enlaces de descarga

Rip de Bluray

Descargar Audrey (2020) HD 1080p Latino




Aportes de DPeliculasHDmega la pass es:dpeliculashdmega.org Aportes de CinemaniaHD la pass es:cinemaniahdd.com
Guardado en : Documental , HD 1080p

Películas relacionadas

  • Borrego: Sal Del Camino (2022) HD 1080p Latino

    Borrego: Sal Del Camino (2022) HD 1080p Latino

    2022
    Borrego: Sal Del Camino (2022) HD 1080p Latino

    1h 42m 2022

    Descargar Borrego: Sal Del Camino (2022) HD 1080p Latino. Una joven botánica se traslada a un pequeño...

    Director: Jesse Harris

    Género: Crimen

    Actores: Olivia Trujillo

  • La familia Monster (2022) HD 1080p Latino

    La familia Monster (2022) HD 1080p Latino

    2022
    La familia Monster (2022) HD 1080p Latino

    1h 49m 2022

    Descargar La familia Monster (2022) HD 1080p Latino. Reboot de "The Munsters", que sigue las desventuras...

    Director: Rob Zombie

    Género: Comedia

    Actores: Tomas Boykin

  • Venganza (2022) HD 1080p Latino

    Venganza (2022) HD 1080p Latino

    2022
    Venganza (2022) HD 1080p Latino

    1h 47m 2022

    Descargar Venganza (2022) HD 1080p Latino. Ben Manalowitz, periodista y presentador de podcasts, viaja...

    Director: Tara Hunter

    Género: Comedia

    Actores: Zach Villa

  • Venganza y redención (2022) HD 1080p Latino

    Venganza y redención (2022) HD 1080p Latino

    2022
    Venganza y redención (2022) HD 1080p Latino

    1h 33m 2022

    Descargar Venganza y redención [Elefante Blanco] (2022) HD 1080p Latino. Un ex miembro de la Marina...

    Director: Jesse V. Johnson

    Género: Acción

    Actores: Vadhir Derbez

descargar Audrey (2020) HD 1080p Latino 1080p 1080p gratis, Audrey (2020) HD 1080p Latino 1080p mega 1 link, Audrey (2020) HD 1080p Latino 1080p pelicula completa, descargar Audrey (2020) HD 1080p Latino 1080p gratis en mega.

Audrey (2020) HD 1080p Latino pelicula full hd, Audrey (2020) HD 1080p Latino mega latino, Audrey (2020) HD 1080p Latino 4k latino, Audrey (2020) HD 1080p Latino pelicula completa, Audrey (2020) HD 1080p Latino descargar gratis, descargar Audrey (2020) HD 1080p Latino pelicula latino, Audrey (2020) HD 1080p Latino 1 link mega, Audrey (2020) HD 1080p Latino 1 link google drive, Audrey (2020) HD 1080p Latino hd 1080p latino.
Comentarios 0