×

¿Problemas para descargar con Mozilla, EDGE? Deshabilita la opción "Abrir vinculos en una pestaña nueva" tal como lo muestra ésta imagen.

Attraction (2017) PLACEBO Full HD 1080p Latino

298 vistas

Información de Attraction (2017) PLACEBO Full HD 1080p Latino

Datos de la película

  • Calidad: Full 1080p
  • Audio: Se especifica abajo de la Sinopsis
  • Subtitulos: Español Latino SRT- FORZADOS SRT
  • Resolución: 1920x1080p
  • Formato: MKV
  • Codec: H.264
  • Encoder: Dpelis
  • Mediainfo: Clic para Mostrar Datos Ver
  • Attraction (2017) FULL HD 1080p Latino.mkv
    Format                      : Matroska
    Format version              : Version 4
    File size                   : 6.96 GiB
    Duration                    : 1 h 57 min
    Overall bit rate            : 8 503 kb/s
    Movie name                  : Attraction (2017) CinemaniaHDD.Net
    Encoded date                : UTC 2021-06-09 21:39:04
    Writing application         : mkvmerge v56.1.0 ('My Friend') 64-bit
    Writing library             : libebml v1.4.2 + libmatroska v1.6.4
    Attachments                 : CINEMANIAHD.png

    Video
    ID                          : 1
    Format                      : AVC
    Format/Info                 : Advanced Video Codec
    Format profile              : High@L4.1
    Format settings             : CABAC / 4 Ref Frames
    Format settings, CABAC      : Yes
    Format settings, Reference  : 4 frames
    Codec ID                    : V_MPEG4/ISO/AVC
    Duration                    : 1 h 57 min
    Bit rate                    : 7 220 kb/s
    Width                       : 1 920 pixels
    Height                      : 1 080 pixels
    Display aspect ratio        : 16:9
    Frame rate mode             : Constant
    Frame rate                  : 24.000 FPS
    Color space                 : YUV
    Chroma subsampling          : 4:2:0
    Bit depth                   : 8 bits
    Scan type                   : Progressive
    Bits/(Pixel*Frame)          : 0.145
    Stream size                 : 5.91 GiB (85%)
    Title                       : HD1080p [CinemaniaHDD]
    Writing library             : x264 core 157 r2935 545de2f
    Encoding settings           : cabac=1 / ref=4 / deblock=1:0:0 / analyse=0x3:0x133 / me=tesa / subme=11 / psy=1 / psy_rd=1.00:0.00 / mixed_ref=1 / me_range=24 / chroma_me=1 / trellis=2 / 8x8dct=1 / cqm=0 / deadzone=21,11 / fast_pskip=0 / chroma_qp_offset=-2 / threads=24 / lookahead_threads=6 / sliced_threads=0 / nr=0 / decimate=1 / interlaced=0 / bluray_compat=0 / constrained_intra=0 / bframes=16 / b_pyramid=2 / b_adapt=2 / b_bias=0 / direct=3 / weightb=1 / open_gop=0 / weightp=2 / keyint=240 / keyint_min=24 / scenecut=40 / intra_refresh=0 / rc_lookahead=60 / rc=crf / mbtree=1 / crf=20.0 / qcomp=0.60 / qpmin=0 / qpmax=69 / qpstep=4 / vbv_maxrate=62500 / vbv_bufsize=78125 / crf_max=0.0 / nal_hrd=none / filler=0 / ip_ratio=1.40 / aq=1:1.00
    Default                     : Yes
    Forced                      : Yes
    Color range                 : Limited
    Color primaries             : BT.709
    Transfer characteristics    : BT.709
    Matrix coefficients         : BT.709

    Audio #1
    ID                          : 2
    Format                      : AC-3
    Format/Info                 : Audio Coding 3
    Commercial name             : Dolby Digital
    Codec ID                    : A_AC3
    Duration                    : 1 h 57 min
    Bit rate mode               : Constant
    Bit rate                    : 640 kb/s
    Channel(s)                  : 6 channels
    Channel layout              : L R C LFE Ls Rs
    Sampling rate               : 48.0 kHz
    Frame rate                  : 31.250 FPS (1536 SPF)
    Compression mode            : Lossy
    Delay relative to video     : -5 ms
    Stream size                 : 537 MiB (8%)
    Title                       : Español Latino [CinemaniaHDD]
    Language                    : Spanish
    Service kind                : Complete Main
    Default                     : Yes
    Forced                      : Yes

    Audio #2
    ID                          : 3
    Format                      : AC-3
    Format/Info                 : Audio Coding 3
    Commercial name             : Dolby Digital
    Codec ID                    : A_AC3
    Duration                    : 1 h 57 min
    Bit rate mode               : Constant
    Bit rate                    : 640 kb/s
    Channel(s)                  : 6 channels
    Channel layout              : L R C LFE Ls Rs
    Sampling rate               : 48.0 kHz
    Frame rate                  : 31.250 FPS (1536 SPF)
    Compression mode            : Lossy
    Delay relative to video     : -5 ms
    Stream size                 : 537 MiB (8%)
    Title                       : Ruso [CinemaniaHDD]
    Language                    : Russian
    Service kind                : Complete Main
    Default                     : No
    Forced                      : No

    Text #1
    ID                          : 4
    Format                      : UTF-8
    Codec ID                    : S_TEXT/UTF8
    Codec ID/Info               : UTF-8 Plain Text
    Duration                    : 1 h 6 min
    Bit rate                    : 0 b/s
    Count of elements           : 14
    Stream size                 : 296 Bytes (0%)
    Title                       : Forzados-SRT [CinemaniaHDD]
    Language                    : Spanish
    Default                     : Yes
    Forced                      : Yes

    Text #2
    ID                          : 5
    Format                      : UTF-8
    Codec ID                    : S_TEXT/UTF8
    Codec ID/Info               : UTF-8 Plain Text
    Duration                    : 1 h 56 min
    Bit rate                    : 46 b/s
    Count of elements           : 1266
    Stream size                 : 39.7 KiB (0%)
    Title                       : Español-SRT [CinemaniaHDD]
    Language                    : Spanish
    Default                     : No
    Forced                      : No

    Menu
    00:00:00.000                : :00:00:00.000
    00:14:57.583                : :00:14:57.500
    00:29:45.250                : :00:29:45.167
    00:49:08.708                : :00:49:08.667
    01:06:29.167                : :01:06:29.083
    01:26:54.083                : :01:26:53.958
    01:49:41.125                : :01:49:41.042

  • Peso: 6.96 GiB

Sinopsis

Descargar Attraction (2017) PLACEBO Full HD 1080p Latino. Sobre Moscú es derribado un objeto no identificado, posiblemente de origen extraterrestre. Esto hace que la mayor parte de la capital quede acordonada, para evacuación a los residentes locales y para que un equipo del Ministerio de Defensa, trate de ponerse en contacto con los llamados “invitados”.

Latino AC3 5.1 – Ruso AC3 5.1

RESUBIDO!!!

Ficha técnica

Video trailer de la película

Enlaces de descarga

Rip de Bluray

Descargar Attraction (2017) PLACEBO Full HD 1080p Latino




Aportes de DPeliculasHDmega la pass es:dpeliculashdmega.org Aportes de CinemaniaHD la pass es:cinemaniahdd.com

Películas relacionadas

descargar Attraction (2017) PLACEBO Full HD 1080p Latino Full 1080p 1080p gratis, Attraction (2017) PLACEBO Full HD 1080p Latino Full 1080p mega 1 link, Attraction (2017) PLACEBO Full HD 1080p Latino Full 1080p pelicula completa, descargar Attraction (2017) PLACEBO Full HD 1080p Latino Full 1080p gratis en mega.

Attraction (2017) PLACEBO Full HD 1080p Latino pelicula full hd, Attraction (2017) PLACEBO Full HD 1080p Latino mega latino, Attraction (2017) PLACEBO Full HD 1080p Latino 4k latino, Attraction (2017) PLACEBO Full HD 1080p Latino pelicula completa, Attraction (2017) PLACEBO Full HD 1080p Latino descargar gratis, descargar Attraction (2017) PLACEBO Full HD 1080p Latino pelicula latino, Attraction (2017) PLACEBO Full HD 1080p Latino 1 link mega, Attraction (2017) PLACEBO Full HD 1080p Latino 1 link google drive, Attraction (2017) PLACEBO Full HD 1080p Latino hd 1080p latino.
Comentarios 0