×

¿Problemas para descargar con Mozilla, EDGE? Deshabilita la opción "Abrir vinculos en una pestaña nueva" tal como lo muestra ésta imagen.

Attraction 2: El fin de los tiempos (2020) WebDL 1080p Latino

238 vistas

Información de Attraction 2: El fin de los tiempos (2020) WebDL 1080p Latino

Datos de la película

  • Calidad: WEBDL
  • Audio: Español Latino AC3 5.1 iTunes - Ingles AC3 5.1 iTunes
  • Subtitulos: Español Latino SRT- FORZADOS SRT
  • Resolución: 1912x760p
  • Formato: MKV
  • Codec: H.264
  • Encoder: CinemaniaHD
  • Mediainfo: Clic para Mostrar Datos Ver
  • Invasion el fin de los tiempos (2020) WebDL 1080p Latino.mkv
    Format                      : Matroska
    Format version              : Version 4
    File size                   : 4.91 GiB
    Duration                    : 2 h 12 min
    Overall bit rate            : 5 297 kb/s
    Movie name                  : Attraction 2 (2020) CinemaniaHDD.Net
    Encoded date                : UTC 2021-06-02 05:51:07
    Writing application         : mkvmerge v56.1.0 ('My Friend') 64-bit
    Writing library             : libebml v1.4.2 + libmatroska v1.6.4
    Attachments                 : CINEMANIAHD.png

    Video
    ID                          : 1
    Format                      : AVC
    Format/Info                 : Advanced Video Codec
    Format profile              : High@L4
    Format settings             : CABAC / 5 Ref Frames
    Format settings, CABAC      : Yes
    Format settings, Reference  : 5 frames
    Format settings, GOP        : N=1
    Codec ID                    : V_MPEG4/ISO/AVC
    Duration                    : 2 h 12 min
    Bit rate                    : 4 527 kb/s
    Width                       : 1 912 pixels
    Height                      : 760 pixels
    Display aspect ratio        : 2.516
    Frame rate mode             : Constant
    Frame rate                  : 24.000 FPS
    Color space                 : YUV
    Chroma subsampling          : 4:2:0
    Bit depth                   : 8 bits
    Scan type                   : Progressive
    Bits/(Pixel*Frame)          : 0.130
    Stream size                 : 4.19 GiB (85%)
    Title                       : WEB HD1080p [CinemaniaHDD]
    Language                    : English
    Default                     : Yes
    Forced                      : No
    Color range                 : Limited
    Color primaries             : BT.709
    Transfer characteristics    : BT.709
    Matrix coefficients         : BT.709

    Audio #1
    ID                          : 2
    Format                      : AC-3
    Format/Info                 : Audio Coding 3
    Commercial name             : Dolby Digital
    Codec ID                    : A_AC3
    Duration                    : 2 h 12 min
    Bit rate mode               : Constant
    Bit rate                    : 384 kb/s
    Channel(s)                  : 6 channels
    Channel layout              : L R C LFE Ls Rs
    Sampling rate               : 48.0 kHz
    Frame rate                  : 31.250 FPS (1536 SPF)
    Compression mode            : Lossy
    Delay relative to video     : -42 ms
    Stream size                 : 364 MiB (7%)
    Title                       : Español Latino [CinemaniaHDD]
    Language                    : Spanish
    Service kind                : Complete Main
    Default                     : Yes
    Forced                      : No

    Audio #2
    ID                          : 3
    Format                      : AC-3
    Format/Info                 : Audio Coding 3
    Commercial name             : Dolby Digital
    Codec ID                    : A_AC3
    Duration                    : 2 h 12 min
    Bit rate mode               : Constant
    Bit rate                    : 384 kb/s
    Channel(s)                  : 6 channels
    Channel layout              : L R C LFE Ls Rs
    Sampling rate               : 48.0 kHz
    Frame rate                  : 31.250 FPS (1536 SPF)
    Compression mode            : Lossy
    Delay relative to video     : -42 ms
    Stream size                 : 364 MiB (7%)
    Title                       : Ingles [CinemaniaHDD]
    Language                    : English
    Service kind                : Complete Main
    Default                     : No
    Forced                      : No

    Text #1
    ID                          : 4
    Format                      : UTF-8
    Codec ID                    : S_TEXT/UTF8
    Codec ID/Info               : UTF-8 Plain Text
    Duration                    : 1 h 20 min
    Bit rate                    : 0 b/s
    Count of elements           : 6
    Stream size                 : 197 Bytes (0%)
    Title                       : Forzados-SRT [CinemaniaHDD]
    Language                    : Spanish
    Default                     : Yes
    Forced                      : No

    Text #2
    ID                          : 5
    Format                      : UTF-8
    Codec ID                    : S_TEXT/UTF8
    Codec ID/Info               : UTF-8 Plain Text
    Duration                    : 1 h 57 min
    Bit rate                    : 62 b/s
    Count of elements           : 1286
    Stream size                 : 53.3 KiB (0%)
    Title                       : Español-SRT [CinemaniaHDD]
    Language                    : Spanish
    Default                     : No
    Forced                      : No

    Menu
    00:00:00.000                : Capítulo 1
    00:15:07.833                : Capítulo 2
    00:31:28.166                : Capítulo 3
    00:51:23.166                : Capítulo 4
    01:12:06.291                : Capítulo 5
    01:30:30.832                : Capítulo 6
    01:47:26.957                : Capítulo 7
    02:12:37.998                : Capítulo 1

  • Peso: 4.91 GiB

Sinopsis

Descargar Attraction 2: El fin de los tiempos (2020) WebDL 1080p Latino. La caída de un objeto extraterrestre ha dividido las vidas en un «antes» y un «después». Una chica normal y corriente de Chertanov (Moscú) -Yulia Lebedeva- se ve obligada a ser una cobaya de laboratorio; después de todo, ella es la única que ha estado en contacto con el alienígena. Los científicos tratan de desentrañar la naturaleza de sus crecientes poderes, pero lo más aterrador es que sus nuevas habilidades no son la única preocupación de los terrícolas: una amenaza de invasión se cierne sobre el planeta. Y ganar en la colisión que se avecina sólo puede ser de una manera: encontrando el poder de seguir siendo humano ¿Serán el amor, la lealtad y la piedad más fuertes que la fuerza bruta y la tecnología alienígena?

Ficha técnica

Video trailer de la película

Enlaces de descarga

Rip de Bluray

Descargar Attraction 2: El fin de los tiempos (2020) WebDL 1080p Latino




Aportes de DPeliculasHDmega la pass es:dpeliculashdmega.org Aportes de CinemaniaHD la pass es:cinemaniahdd.com
Guardado en : Acción , Ciencia ficción , Drama , Romance

Películas relacionadas

descargar Attraction 2: El fin de los tiempos (2020) WebDL 1080p Latino WEBDL 1080p gratis, Attraction 2: El fin de los tiempos (2020) WebDL 1080p Latino WEBDL mega 1 link, Attraction 2: El fin de los tiempos (2020) WebDL 1080p Latino WEBDL pelicula completa, descargar Attraction 2: El fin de los tiempos (2020) WebDL 1080p Latino WEBDL gratis en mega.

Attraction 2: El fin de los tiempos (2020) WebDL 1080p Latino pelicula full hd, Attraction 2: El fin de los tiempos (2020) WebDL 1080p Latino mega latino, Attraction 2: El fin de los tiempos (2020) WebDL 1080p Latino 4k latino, Attraction 2: El fin de los tiempos (2020) WebDL 1080p Latino pelicula completa, Attraction 2: El fin de los tiempos (2020) WebDL 1080p Latino descargar gratis, descargar Attraction 2: El fin de los tiempos (2020) WebDL 1080p Latino pelicula latino, Attraction 2: El fin de los tiempos (2020) WebDL 1080p Latino 1 link mega, Attraction 2: El fin de los tiempos (2020) WebDL 1080p Latino 1 link google drive, Attraction 2: El fin de los tiempos (2020) WebDL 1080p Latino hd 1080p latino.
Comentarios 0