×

¿Problemas para descargar con Mozilla, EDGE? Deshabilita la opción "Abrir vinculos en una pestaña nueva" tal como lo muestra ésta imagen.

Attack on Titan The Roar of Awakening (2018) REMUX 1080p Latino – CMHDD

285 vistas

Información de Attack on Titan The Roar of Awakening (2018) REMUX 1080p Latino – CMHDD

Datos de la película

  • Calidad: Full 1080p
  • Audio: Se especifica abajo de la Sinopsis
  • Subtitulos: Español Latino PGS
  • Resolución: 1920x1080p
  • Formato: MKV
  • Codec: H.264
  • Encoder: Dracarys
  • Mediainfo: Clic para Mostrar Datos Ver
  • Format                      : Matroska
    Format version              : Version 4
    File size                   : 36.0 GiB
    Duration                    : 2 h 0 min
    Overall bit rate mode       : Variable
    Overall bit rate            : 42.8 Mb/s
    Movie name                  : Attack on Titan The Roar of Awakening (2018) REMUX 1080p Latino - CMHDD
    Encoded date                : UTC 2021-03-14 13:26:33
    Writing application         : mkvmerge v51.0.0 ('I Wish') 64-bit
    Writing library             : libebml v1.4.0 + libmatroska v1.6.2

    Video
    ID                          : 1
    ID in the original source m : 4113 (0x1011)
    Format                      : AVC
    Format/Info                 : Advanced Video Codec
    Format profile              : High@L4.1
    Format settings             : CABAC / 4 Ref Frames
    Format settings, CABAC      : Yes
    Format settings, Reference  : 4 frames
    Codec ID                    : V_MPEG4/ISO/AVC
    Duration                    : 2 h 0 min
    Bit rate mode               : Variable
    Bit rate                    : 35.4 Mb/s
    Maximum bit rate            : 37.0 Mb/s
    Width                       : 1 920 pixels
    Height                      : 1 080 pixels
    Display aspect ratio        : 16:9
    Frame rate mode             : Constant
    Frame rate                  : 23.976 (24000/1001) FPS
    Color space                 : YUV
    Chroma subsampling          : 4:2:0
    Bit depth                   : 8 bits
    Scan type                   : Progressive
    Bits/(Pixel*Frame)          : 0.713
    Stream size                 : 29.9 GiB (83%)
    Default                     : Yes
    Forced                      : No
    Original source medium      : Blu-ray

    Audio #1
    ID                          : 2
    ID in the original source m : 4354 (0x1102)
    Format                      : AC-3
    Format/Info                 : Audio Coding 3
    Commercial name             : Dolby Digital
    Codec ID                    : A_AC3
    Duration                    : 2 h 0 min
    Bit rate mode               : Constant
    Bit rate                    : 384 kb/s
    Channel(s)                  : 6 channels
    Channel layout              : L R C LFE Ls Rs
    Sampling rate               : 48.0 kHz
    Frame rate                  : 31.250 FPS (1536 SPF)
    Compression mode            : Lossy
    Delay relative to video     : 24 ms
    Stream size                 : 331 MiB (1%)
    Language                    : Spanish
    Service kind                : Complete Main
    Default                     : Yes
    Forced                      : No
    Original source medium      : Blu-ray

    Audio #2
    ID                          : 3
    ID in the original source m : 4352 (0x1100)
    Format                      : PCM
    Format settings             : Little / Signed
    Codec ID                    : A_PCM/INT/LIT
    Duration                    : 2 h 0 min
    Bit rate mode               : Constant
    Bit rate                    : 6 912 kb/s
    Channel(s)                  : 6 channels
    Sampling rate               : 48.0 kHz
    Frame rate                  : 200.000 FPS (240 SPF)
    Bit depth                   : 24 bits
    Stream size                 : 5.82 GiB (16%)
    Language                    : Japanese
    Default                     : No
    Forced                      : No
    Original source medium      : Blu-ray

    Text
    ID                          : 4
    ID in the original source m : 4609 (0x1201)
    Format                      : PGS
    Muxing mode                 : zlib
    Codec ID                    : S_HDMV/PGS
    Codec ID/Info               : Picture based subtitle format used on BDs/HD-DVDs
    Duration                    : 2 h 0 min
    Bit rate                    : 29.5 kb/s
    Count of elements           : 2704
    Stream size                 : 25.4 MiB (0%)
    Language                    : Spanish
    Default                     : No
    Forced                      : No
    Original source medium      : Blu-ray

    Menu
    00:00:00.000                : en:Chapter 01
    00:10:13.613                : en:Chapter 02
    00:17:52.446                : en:Chapter 03
    00:31:31.264                : en:Chapter 04
    00:41:02.960                : en:Chapter 05
    00:52:53.712                : en:Chapter 06
    01:02:10.727                : en:Chapter 07
    01:11:17.606                : en:Chapter 08
    01:25:01.096                : en:Chapter 09
    01:41:14.318                : en:Chapter 10
    01:52:52.766                : en:Chapter 11
    01:58:19.092                : en:Chapter 12

  • Peso: 36.0 GiB

Sinopsis

Eren Yeager y el resto del 104º Cuerpo de Entrenamiento ya pertenecen al Survey Corps. Están listos para enfrentarse a los Titanes otra vez, pero su preparación se ve interrumpida por la invasión del Wall Rose. El Survey Corps irá a salvar el muro y descubrirá más sobre los Titanes y sobre sus propios miembros. Tercera película de la saga, que recapitula los episodios del 26-37 contando el arco «Enfrentamiento de Titanes».

 

Latino: AC3 5.1  –  Japones: PCM 5.1

Ficha técnica

Video trailer de la película

Enlaces de descarga

Rip de Bluray

Descargar Attack on Titan The Roar of Awakening (2018) REMUX 1080p Latino – CMHDD


Aportes de DPeliculasHDmega la pass es:dpeliculashdmega.org Aportes de CinemaniaHD la pass es:cinemaniahdd.com

Películas relacionadas

  • Wire Room (2022) HD 1080p Latino

    Wire Room (2022) HD 1080p Latino

    2022
    Wire Room (2022) HD 1080p Latino

    1h 37m 2022

    Descargar Wire Room (2022) HD 1080p Latino. Mientras está de servicio en la sala de cables, un agente...

    Director: Matt Eskandari

    Género: Acción

    Actores: Texas Battle

  • Wire Room (2022) PLACEBO Full HD 1080p Latino

    Wire Room (2022) PLACEBO Full HD 1080p Latino

    2022
    Wire Room (2022) PLACEBO Full HD 1080p Latino

    1h 37m 2022

    Descargar Wire Room (2022) PLACEBO Full HD 1080p Latino. Mientras está de servicio en la sala de cables,...

    Director: Matt Eskandari

    Género: Acción

    Actores: Texas Battle

  • Wire Room (2022) REMUX 1080p Latino

    Wire Room (2022) REMUX 1080p Latino

    2022
    Wire Room (2022) REMUX 1080p Latino

    1h 37m 2022

    Descargar Wire Room (2022) REMUX 1080p Latino. Mientras está de servicio en la sala de cables, un agente...

    Director: Matt Eskandari

    Género: Acción

    Actores: Texas Battle

  • After: Amor infinito (2022) AMZN WEB-DL 1080p Latino

    After: Amor infinito (2022) AMZN WEB-DL 1080p Latino

    2022
    After: Amor infinito (2022) AMZN WEB-DL 1080p Latino

    1h 35m 2022

    Descargar After: Amor infinito (2022) AMZN WEB-DL 1080p Latino. El amor de Tessa y Hardin nunca ha sido...

    Director: Castille Landon

    Género: Drama

    Actores: Velizar Nikolaev Biney

  • El Cuartel Secreto (2022) WEB-DL 4K UHD HDR Latino

    El Cuartel Secreto (2022) WEB-DL 4K UHD HDR Latino

    2022
    El Cuartel Secreto (2022) WEB-DL 4K UHD HDR Latino

    1h 44m 2022

    Descargar El Cuartel Secreto (2022) WEB-DL 4K UHD HDR Latino. Mientras pasan el rato después de la escuela,...

    Director: Henry Joost

    Género: 4K HDR

    Actores: Zeb Slone

descargar Attack on Titan The Roar of Awakening (2018) REMUX 1080p Latino – CMHDD Full 1080p 1080p gratis, Attack on Titan The Roar of Awakening (2018) REMUX 1080p Latino – CMHDD Full 1080p mega 1 link, Attack on Titan The Roar of Awakening (2018) REMUX 1080p Latino – CMHDD Full 1080p pelicula completa, descargar Attack on Titan The Roar of Awakening (2018) REMUX 1080p Latino – CMHDD Full 1080p gratis en mega.

Attack on Titan The Roar of Awakening (2018) REMUX 1080p Latino – CMHDD pelicula full hd, Attack on Titan The Roar of Awakening (2018) REMUX 1080p Latino – CMHDD mega latino, Attack on Titan The Roar of Awakening (2018) REMUX 1080p Latino – CMHDD 4k latino, Attack on Titan The Roar of Awakening (2018) REMUX 1080p Latino – CMHDD pelicula completa, Attack on Titan The Roar of Awakening (2018) REMUX 1080p Latino – CMHDD descargar gratis, descargar Attack on Titan The Roar of Awakening (2018) REMUX 1080p Latino – CMHDD pelicula latino, Attack on Titan The Roar of Awakening (2018) REMUX 1080p Latino – CMHDD 1 link mega, Attack on Titan The Roar of Awakening (2018) REMUX 1080p Latino – CMHDD 1 link google drive, Attack on Titan The Roar of Awakening (2018) REMUX 1080p Latino – CMHDD hd 1080p latino.