×

¿Problemas para descargar con Mozilla, EDGE? Deshabilita la opción "Abrir vinculos en una pestaña nueva" tal como lo muestra ésta imagen.

Attack on Titan Part II Wings of Freedom (2015) REMUX 1080p Latino – CMHDD

256 vistas

Información de Attack on Titan Part II Wings of Freedom (2015) REMUX 1080p Latino – CMHDD

Datos de la película

  • Calidad: Full 1080p
  • Audio: Se especifica abajo de la Sinopsis
  • Subtitulos: Español Latino PGS
  • Resolución: 1920x1080p
  • Formato: MKV
  • Codec: H.264
  • Encoder: Dracarys
  • Mediainfo: Clic para Mostrar Datos Ver
  • Format                      : Matroska
    Format version              : Version 4
    File size                   : 31.4 GiB
    Duration                    : 2 h 0 min
    Overall bit rate mode       : Variable
    Overall bit rate            : 37.4 Mb/s
    Movie name                  : Attack on Titan Part II Wings of Freedom (2015) REMUX 1080p Latino - CMHDD
    Encoded date                : UTC 2021-03-14 13:58:40
    Writing application         : mkvmerge v51.0.0 ('I Wish') 64-bit
    Writing library             : libebml v1.4.0 + libmatroska v1.6.2

    Video
    ID                          : 1
    Format                      : AVC
    Format/Info                 : Advanced Video Codec
    Format profile              : High@L4.1
    Format settings             : CABAC / 4 Ref Frames
    Format settings, CABAC      : Yes
    Format settings, Reference  : 4 frames
    Codec ID                    : V_MPEG4/ISO/AVC
    Duration                    : 2 h 0 min
    Bit rate mode               : Variable
    Bit rate                    : 28.0 Mb/s
    Maximum bit rate            : 35.0 Mb/s
    Width                       : 1 920 pixels
    Height                      : 1 080 pixels
    Display aspect ratio        : 16:9
    Frame rate mode             : Constant
    Frame rate                  : 23.976 (24000/1001) FPS
    Color space                 : YUV
    Chroma subsampling          : 4:2:0
    Bit depth                   : 8 bits
    Scan type                   : Progressive
    Bits/(Pixel*Frame)          : 0.563
    Stream size                 : 23.5 GiB (75%)
    Default                     : Yes
    Forced                      : No

    Audio #1
    ID                          : 2
    Format                      : AC-3
    Format/Info                 : Audio Coding 3
    Commercial name             : Dolby Digital
    Codec ID                    : A_AC3
    Duration                    : 2 h 0 min
    Bit rate mode               : Constant
    Bit rate                    : 384 kb/s
    Channel(s)                  : 6 channels
    Channel layout              : L R C LFE Ls Rs
    Sampling rate               : 48.0 kHz
    Frame rate                  : 31.250 FPS (1536 SPF)
    Compression mode            : Lossy
    Stream size                 : 330 MiB (1%)
    Language                    : Spanish
    Service kind                : Complete Main
    Default                     : Yes
    Forced                      : No

    Audio #2
    ID                          : 3
    Format                      : PCM
    Format settings             : Little / Signed
    Codec ID                    : A_PCM/INT/LIT
    Duration                    : 2 h 0 min
    Bit rate mode               : Constant
    Bit rate                    : 6 912 kb/s
    Channel(s)                  : 6 channels
    Sampling rate               : 48.0 kHz
    Frame rate                  : 200.000 FPS (240 SPF)
    Bit depth                   : 24 bits
    Stream size                 : 5.80 GiB (18%)
    Language                    : Japanese
    Default                     : No
    Forced                      : No

    Audio #3
    ID                          : 4
    Format                      : DTS XLL
    Format/Info                 : Digital Theater Systems
    Commercial name             : DTS-HD Master Audio
    Codec ID                    : A_DTS
    Duration                    : 2 h 0 min
    Bit rate mode               : Variable
    Bit rate                    : 2 100 kb/s
    Channel(s)                  : 2 channels
    Channel layout              : L R
    Sampling rate               : 48.0 kHz
    Frame rate                  : 93.750 FPS (512 SPF)
    Bit depth                   : 24 bits
    Compression mode            : Lossless
    Stream size                 : 1.76 GiB (6%)
    Language                    : Japanese
    Default                     : No
    Forced                      : No

    Text
    ID                          : 5
    Format                      : PGS
    Muxing mode                 : zlib
    Codec ID                    : S_HDMV/PGS
    Codec ID/Info               : Picture based subtitle format used on BDs/HD-DVDs
    Duration                    : 1 h 59 min
    Bit rate                    : 30.4 kb/s
    Count of elements           : 2330
    Stream size                 : 26.0 MiB (0%)
    Language                    : Spanish
    Default                     : No
    Forced                      : No

  • Peso: 31.4 GiB

Sinopsis

Tras 100 años sometida el yugo de los temibles Titanes, la humanidad ha logrado su primera victoria gracias a un arma inesperada: el poder del cadete Eren Jaeger para transformarse en Titán. Pero, ¿se trata de la última esperanza de la humanidad o del demonio que la conducirá a su aniquilación? Ante la duda, el Capitán Levy recluta a Eren para el Cuerpo de Exploración y lo lleva con él en una expedición más allá de los muros. Pero la misión amenaza con acabar en desastre cuando aparece la Titán Hembra, un ser inteligente obsesionado con capturar vivo a Eren Jarger. ¿Confiará Eren en sus compañeros para que le protejan de esta nueva amenaza y descubran qué se oculta detrás de ella o dará rienda suelta a su furia de Titán para derrotarla?

 

Latino: AC3 5.1  –  Japones: PCM 5.1

Ficha técnica

Video trailer de la película

Enlaces de descarga

Rip de Bluray

Descargar Attack on Titan Part II Wings of Freedom (2015) REMUX 1080p Latino – CMHDD


Aportes de DPeliculasHDmega la pass es:dpeliculashdmega.org Aportes de CinemaniaHD la pass es:cinemaniahdd.com
Guardado en : Acción , Animación , Aventura , Fantasía

Películas relacionadas

descargar Attack on Titan Part II Wings of Freedom (2015) REMUX 1080p Latino – CMHDD Full 1080p 1080p gratis, Attack on Titan Part II Wings of Freedom (2015) REMUX 1080p Latino – CMHDD Full 1080p mega 1 link, Attack on Titan Part II Wings of Freedom (2015) REMUX 1080p Latino – CMHDD Full 1080p pelicula completa, descargar Attack on Titan Part II Wings of Freedom (2015) REMUX 1080p Latino – CMHDD Full 1080p gratis en mega.

Attack on Titan Part II Wings of Freedom (2015) REMUX 1080p Latino – CMHDD pelicula full hd, Attack on Titan Part II Wings of Freedom (2015) REMUX 1080p Latino – CMHDD mega latino, Attack on Titan Part II Wings of Freedom (2015) REMUX 1080p Latino – CMHDD 4k latino, Attack on Titan Part II Wings of Freedom (2015) REMUX 1080p Latino – CMHDD pelicula completa, Attack on Titan Part II Wings of Freedom (2015) REMUX 1080p Latino – CMHDD descargar gratis, descargar Attack on Titan Part II Wings of Freedom (2015) REMUX 1080p Latino – CMHDD pelicula latino, Attack on Titan Part II Wings of Freedom (2015) REMUX 1080p Latino – CMHDD 1 link mega, Attack on Titan Part II Wings of Freedom (2015) REMUX 1080p Latino – CMHDD 1 link google drive, Attack on Titan Part II Wings of Freedom (2015) REMUX 1080p Latino – CMHDD hd 1080p latino.