×

¿Problemas para descargar con Mozilla, EDGE? Deshabilita la opción "Abrir vinculos en una pestaña nueva" tal como lo muestra ésta imagen.

Attack on Titan Crimson Bow and Arrow (2014) REMUX 1080p Latino – CMHDD

266 vistas

Información de Attack on Titan Crimson Bow and Arrow (2014) REMUX 1080p Latino – CMHDD

Datos de la película

  • Calidad: Full 1080p
  • Audio: Se especifica abajo de la Sinopsis
  • Subtitulos: Español Latino PGS
  • Resolución: 1920x1080p
  • Formato: MKV
  • Codec: H.264
  • Encoder: Dracarys
  • Mediainfo: Clic para Mostrar Datos Ver
  • Format                      : Matroska
    Format version              : Version 4
    File size                   : 32.7 GiB
    Duration                    : 1 h 58 min
    Overall bit rate mode       : Variable
    Overall bit rate            : 39.3 Mb/s
    Movie name                  : Attack on Titan Crimson Bow and Arrow (2014) REMUX 1080p Latino - CMHDD
    Encoded date                : UTC 2021-03-14 13:44:32
    Writing application         : mkvmerge v51.0.0 ('I Wish') 64-bit
    Writing library             : libebml v1.4.0 + libmatroska v1.6.2

    Video
    ID                          : 1
    Format                      : AVC
    Format/Info                 : Advanced Video Codec
    Format profile              : High@L4.1
    Format settings             : CABAC / 4 Ref Frames
    Format settings, CABAC      : Yes
    Format settings, Reference  : 4 frames
    Codec ID                    : V_MPEG4/ISO/AVC
    Duration                    : 1 h 58 min
    Bit rate mode               : Variable
    Bit rate                    : 30.0 Mb/s
    Maximum bit rate            : 35.0 Mb/s
    Width                       : 1 920 pixels
    Height                      : 1 080 pixels
    Display aspect ratio        : 16:9
    Frame rate mode             : Constant
    Frame rate                  : 23.976 (24000/1001) FPS
    Color space                 : YUV
    Chroma subsampling          : 4:2:0
    Bit depth                   : 8 bits
    Scan type                   : Progressive
    Bits/(Pixel*Frame)          : 0.603
    Stream size                 : 24.9 GiB (76%)
    Default                     : Yes
    Forced                      : No

    Audio #1
    ID                          : 2
    Format                      : AC-3
    Format/Info                 : Audio Coding 3
    Commercial name             : Dolby Digital
    Codec ID                    : A_AC3
    Duration                    : 1 h 58 min
    Bit rate mode               : Constant
    Bit rate                    : 384 kb/s
    Channel(s)                  : 6 channels
    Channel layout              : L R C LFE Ls Rs
    Sampling rate               : 48.0 kHz
    Frame rate                  : 31.250 FPS (1536 SPF)
    Compression mode            : Lossy
    Stream size                 : 326 MiB (1%)
    Language                    : Spanish
    Service kind                : Complete Main
    Default                     : Yes
    Forced                      : No

    Audio #2
    ID                          : 3
    Format                      : PCM
    Format settings             : Little / Signed
    Codec ID                    : A_PCM/INT/LIT
    Duration                    : 1 h 58 min
    Bit rate mode               : Constant
    Bit rate                    : 6 912 kb/s
    Channel(s)                  : 6 channels
    Sampling rate               : 48.0 kHz
    Frame rate                  : 200.000 FPS (240 SPF)
    Bit depth                   : 24 bits
    Stream size                 : 5.73 GiB (18%)
    Language                    : Japanese
    Default                     : No
    Forced                      : No

    Audio #3
    ID                          : 4
    Format                      : DTS XLL
    Format/Info                 : Digital Theater Systems
    Commercial name             : DTS-HD Master Audio
    Codec ID                    : A_DTS
    Duration                    : 1 h 58 min
    Bit rate mode               : Variable
    Bit rate                    : 2 100 kb/s
    Channel(s)                  : 2 channels
    Channel layout              : L R
    Sampling rate               : 48.0 kHz
    Frame rate                  : 93.750 FPS (512 SPF)
    Bit depth                   : 24 bits
    Compression mode            : Lossless
    Stream size                 : 1.74 GiB (5%)
    Language                    : Japanese
    Default                     : No
    Forced                      : No

    Text
    ID                          : 5
    Format                      : PGS
    Muxing mode                 : zlib
    Codec ID                    : S_HDMV/PGS
    Codec ID/Info               : Picture based subtitle format used on BDs/HD-DVDs
    Duration                    : 1 h 58 min
    Bit rate                    : 29.9 kb/s
    Count of elements           : 2482
    Stream size                 : 25.2 MiB (0%)
    Language                    : Spanish
    Default                     : No
    Forced                      : No

  • Peso: 32.7 GiB

Sinopsis

Primera de las dos películas recopilatorias/resumen de la primera temporada del anime «Attack on Titan». Cubrirá los acontecimientos de los episodios 1 a 13, incluyendo escenas nuevas, un redoblaje y adaptación a sonido 5.1.

 

Latino: AC3 5.1  –  Japones: PCM 5.1

Ficha técnica

Video trailer de la película

Enlaces de descarga

Rip de Bluray

Descargar Attack on Titan Crimson Bow and Arrow (2014) REMUX 1080p Latino – CMHDD


Aportes de DPeliculasHDmega la pass es:dpeliculashdmega.org Aportes de CinemaniaHD la pass es:cinemaniahdd.com
Guardado en : Acción , Animación , Aventura , Fantasía

Películas relacionadas

descargar Attack on Titan Crimson Bow and Arrow (2014) REMUX 1080p Latino – CMHDD Full 1080p 1080p gratis, Attack on Titan Crimson Bow and Arrow (2014) REMUX 1080p Latino – CMHDD Full 1080p mega 1 link, Attack on Titan Crimson Bow and Arrow (2014) REMUX 1080p Latino – CMHDD Full 1080p pelicula completa, descargar Attack on Titan Crimson Bow and Arrow (2014) REMUX 1080p Latino – CMHDD Full 1080p gratis en mega.

Attack on Titan Crimson Bow and Arrow (2014) REMUX 1080p Latino – CMHDD pelicula full hd, Attack on Titan Crimson Bow and Arrow (2014) REMUX 1080p Latino – CMHDD mega latino, Attack on Titan Crimson Bow and Arrow (2014) REMUX 1080p Latino – CMHDD 4k latino, Attack on Titan Crimson Bow and Arrow (2014) REMUX 1080p Latino – CMHDD pelicula completa, Attack on Titan Crimson Bow and Arrow (2014) REMUX 1080p Latino – CMHDD descargar gratis, descargar Attack on Titan Crimson Bow and Arrow (2014) REMUX 1080p Latino – CMHDD pelicula latino, Attack on Titan Crimson Bow and Arrow (2014) REMUX 1080p Latino – CMHDD 1 link mega, Attack on Titan Crimson Bow and Arrow (2014) REMUX 1080p Latino – CMHDD 1 link google drive, Attack on Titan Crimson Bow and Arrow (2014) REMUX 1080p Latino – CMHDD hd 1080p latino.