Atrápame si puedes (2002) Full 1080p Latino

2.339 vistas
1 estrella2 estrellas3 estrellas4 estrellas5 estrellas (1 votos, promedio: 5,00 de 5)
Cargando…

Información de Atrápame si puedes (2002) Full 1080p Latino

Datos de la película

  • Calidad: Full 1080p
  • Audio: Español Latino AC3 5.1 BLURAY - Ingles DTS 5.1 BLURAY
  • Subtitulos: Español Latino PGS - Ingles PGS
  • Resolución: 1920X1080
  • Formato: MKV
  • Codec: H.264
  • Encoder: Dpelis
  • Mediainfo: Clic para Mostrar Datos Ver
  • Format                                   : Matroska
    Format version                           : Version 4 / Version 2
    File size                                : 13.0 GiB
    Duration                                 : 2 h 20 min
    Overall bit rate                         : 13.2 Mb/s
    Movie name                               : dpeliculashdmega.org
    Encoded date                             : UTC 2017-11-21 21:50:49 / UTC 2017-11-19T14:59:43Z
    Writing application                      : mkvmerge v15.0.0 ('Duel with the Devil') 64-bit
    Writing library                          : libebml v1.3.5 + libmatroska v1.4.5 / Lavf57.7.2

    Video
    ID                                       : 1
    Format                                   : AVC
    Format/Info                              : Advanced Video Codec
    Format profile                           : High@L4.1
    Format settings                          : CABAC / 4 Ref Frames
    Format settings, CABAC                   : Yes
    Format settings, RefFrames               : 4 frames
    Codec ID                                 : V_MPEG4/ISO/AVC
    Duration                                 : 2 h 20 min
    Bit rate                                 : 10.8 Mb/s
    Width                                    : 1 920 pixels
    Height                                   : 1 080 pixels
    Display aspect ratio                     : 16:9
    Frame rate mode                          : Constant
    Frame rate                               : 23.976 (24000/1001) FPS
    Color space                              : YUV
    Chroma subsampling                       : 4:2:0
    Bit depth                                : 8 bits
    Scan type                                : Progressive
    Bits/(Pixel*Frame)                       : 0.217
    Stream size                              : 10.6 GiB (82%)
    Title                                    : Atrápame si puedes (2002) Full 1080p Latino
    Writing library                          : x264 core 148 r2708 86b7198
    Encoding settings                        : cabac=1 / ref=4 / deblock=1:0:0 / analyse=0x3:0x133 / me=esa / subme=10 / psy=1 / psy_rd=1.00:0.00 / mixed_ref=1 / me_range=24 / chroma_me=1 / trellis=2 / 8x8dct=1 / cqm=0 / deadzone=21,11 / fast_pskip=1 / chroma_qp_offset=-2 / threads=34 / lookahead_threads=5 / sliced_threads=0 / nr=0 / decimate=1 / interlaced=0 / bluray_compat=0 / constrained_intra=0 / bframes=8 / b_pyramid=2 / b_adapt=2 / b_bias=0 / direct=3 / weightb=1 / open_gop=0 / weightp=2 / keyint=240 / keyint_min=24 / scenecut=40 / intra_refresh=0 / rc_lookahead=60 / rc=crf / mbtree=1 / crf=20.0 / qcomp=0.60 / qpmin=0 / qpmax=69 / qpstep=4 / vbv_maxrate=62500 / vbv_bufsize=78125 / crf_max=0.0 / nal_hrd=none / filler=0 / ip_ratio=1.40 / aq=1:1.00
    Language                                 : English
    Default                                  : Yes
    Forced                                   : No
    Color range                              : Limited
    Color primaries                          : BT.709
    Transfer characteristics                 : BT.709
    Matrix coefficients                      : BT.709
    Statistics Tags Issue                    : mkvmerge v15.0.0 ('Duel with the Devil') 64-bit 2017-11-21 21:50:49 / mkvmerge v15.0.0 ('Duel with the Devil') 64-bit 2017-11-21 21:50:49 / UTC 2017-11-19T14:59:43Z
    FromStats_BitRate                        : 11043155
    FromStats_Duration                       : 02:20:43.102000000
    FromStats_FrameCount                     : 202432
    FromStats_StreamSize                     : 11654810605

    Audio #1
    ID                                       : 2
    Format                                   : AC-3
    Format/Info                              : Audio Coding 3
    Format settings, Endianness              : Big
    Codec ID                                 : A_AC3
    Duration                                 : 2 h 20 min
    Bit rate mode                            : Constant
    Bit rate                                 : 640 kb/s
    Channel(s)                               : 6 channels
    Channel positions                        : Front: L C R, Side: L R, LFE
    Sampling rate                            : 48.0 kHz
    Frame rate                               : 31.250 FPS (1536 SPF)
    Bit depth                                : 16 bits
    Compression mode                         : Lossy
    Stream size                              : 644 MiB (5%)
    Title                                    : Latino-AC3
    Language                                 : Spanish
    Service kind                             : Complete Main
    Default                                  : Yes
    Forced                                   : No
    Statistics Tags Issue                    : mkvmerge v15.0.0 ('Duel with the Devil') 64-bit 2017-11-21 21:50:49 / mkvmerge v15.0.0 ('Duel with the Devil') 64-bit 2017-11-21 21:50:49 / UTC 2017-11-19T14:59:43Z
    FromStats_BitRate                        : 640000
    FromStats_Duration                       : 02:20:43.104000000
    FromStats_FrameCount                     : 263847
    FromStats_StreamSize                     : 675448320

    Audio #2
    ID                                       : 3
    Format                                   : DTS
    Format/Info                              : Digital Theater Systems
    Mode                                     : 16
    Format settings, Endianness              : Big
    Codec ID                                 : A_DTS
    Duration                                 : 2 h 20 min
    Bit rate mode                            : Constant
    Bit rate                                 : 1 509 kb/s
    Channel(s)                               : 6 channels
    Channel positions                        : Front: L C R, Side: L R, LFE
    Sampling rate                            : 48.0 kHz
    Frame rate                               : 93.750 FPS (512 SPF)
    Bit depth                                : 24 bits
    Compression mode                         : Lossy
    Stream size                              : 1.48 GiB (11%)
    Title                                    : Ingles-DTS
    Language                                 : English
    Default                                  : No
    Forced                                   : No
    Statistics Tags Issue                    : mkvmerge v15.0.0 ('Duel with the Devil') 64-bit 2017-11-21 21:50:49 / mkvmerge v15.0.0 ('Duel with the Devil') 64-bit 2017-11-21 21:50:49 / UTC 2017-11-19T14:59:43Z
    FromStats_BitRate                        : 1509000
    FromStats_Duration                       : 02:20:43.104000000
    FromStats_FrameCount                     : 791541
    FromStats_StreamSize                     : 1592580492

    Text #1
    ID                                       : 4
    Format                                   : PGS
    Muxing mode                              : zlib
    Codec ID                                 : S_HDMV/PGS
    Codec ID/Info                            : Picture based subtitle format used on BDs/HD-DVDs
    Title                                    : PGS
    Language                                 : English
    Default                                  : No
    Forced                                   : No
    Statistics Tags Issue                    : mkvmerge v15.0.0 ('Duel with the Devil') 64-bit 2017-11-21 21:50:49 / mkvmerge v15.0.0 ('Duel with the Devil') 64-bit 2017-11-21 21:50:49 / UTC 2017-11-19T14:59:43Z
    FromStats_BitRate                        : 41271
    FromStats_Duration                       : 02:12:04.125000000
    FromStats_FrameCount                     : 3514
    FromStats_StreamSize                     : 40879692

    Text #2
    ID                                       : 5
    Format                                   : PGS
    Muxing mode                              : zlib
    Codec ID                                 : S_HDMV/PGS
    Codec ID/Info                            : Picture based subtitle format used on BDs/HD-DVDs
    Title                                    : PGS
    Language                                 : Spanish
    Default                                  : No
    Forced                                   : No
    Statistics Tags Issue                    : mkvmerge v15.0.0 ('Duel with the Devil') 64-bit 2017-11-21 21:50:49 / mkvmerge v15.0.0 ('Duel with the Devil') 64-bit 2017-11-21 21:50:49 / UTC 2017-11-19T14:59:43Z
    FromStats_BitRate                        : 37764
    FromStats_Duration                       : 02:14:43.242000000
    FromStats_FrameCount                     : 3400
    FromStats_StreamSize                     : 38157790

    Menu
    00:00:00.000                             : :My Name Is Frank Abagnale, Jr.
    00:04:43.909                             : :Carl Hanratty
    00:10:59.450                             : :Lifestyle Changes
    00:18:35.281                             : :The Substitute
    00:25:56.430                             : :Running Away
    00:28:58.737                             : :Becoming a Pilot
    00:33:59.663                             : :Getting It All Back
    00:38:37.065                             : :Dead Head
    00:42:09.944                             : :Check Cashing
    00:49:06.068                             : :Barry Allen, Secret Service
    00:56:54.870                             : :The James Bond of the Sky
    01:03:42.527                             : :He's A Kid
    01:10:05.952                             : :Dr. Frank Conners
    01:22:26.733                             : :Becoming a Lawyer
    01:32:10.400                             : :Calling a Truce
    01:38:26.067                             : :What's In a Name
    01:43:32.581                             : :New Recruiting Program
    01:49:50.417                             : :Out of Control
    01:58:00.907                             : :Family News
    02:04:01.601                             : :Financial Crime Unit
    02:12:33.362                             : :Late for Work
    02:16:00.319                             : :End Credits

     

  • Peso: 13.0 GiB

Sinopsis

Frank Abagnale Jr. trabajó como médico, abogado y copiloto de una de las grandes líneas aéreas, todo ello antes de cumplir los dieciocho años. También fue un genial falsificador y sus habilidades le otorgaron una plaza en la historia. A la edad de 17 años, Frank Abagnale Jr. se convirtió en el ladrón de bancos de más éxito en la historia de Estados Unidos. El agente del FBI Carl Hanratty dedicó la mayor parte de su tiempo a perseguir a Frank para llevarle ante la justicia, pero Frank siempre estaba un paso por delante, retándole a continuar la caza.

Ficha técnica

Video trailer de la película

Enlaces de descarga

Rip de Bluray

Descargar Atrápame si puedes (2002) Full 1080p Latino




Aportes de DPeliculasHDmega la pass es:dpeliculashdmega.org Aportes de CinemaniaHD la pass es:cinemaniahdd.com
Guardado en : Crimen , Drama , FULL 1080p Plateadas

Películas relacionadas

  • La balada de Buster Scruggs (2018) NF 1080p Latino

    2018
    La balada de Buster Scruggs (2018) NF 1080p Latino

    0.0 2h 12m 2018

    Los siempre singulares Joel y Ethan Cohen escriben y dirigen esta antología de seis historias del Salvaje...

    Director: Joel Coen

    Género: Comedia

    Actores: Zoe Kazan

  • La pequeña brujita (2018) AMZN 1080p Latino

    2018
    La pequeña brujita (2018) AMZN 1080p Latino

    5.0 1h 43m 2018

    Descargar La pequeña brujita (2018) AMZN 1080p Latino, Mega, Google Drive. La pequeña bruja sólo tiene...

    Director: Mike Schaerer

    Género: Comedia

    Actores: Verena Bosshard

  • Puzzle (2018) Web-DL 1080p Latino

    2018
    Puzzle (2018) Web-DL 1080p Latino

    0.0 1h 43m 2018

    Descargar Puzzle (2018) Web-DL 1080p Latino; Mega, Google Drive. Una mujer acude a Atlantic City para...

    Director: Marc Turtletaub

    Género: Drama

    Actores: Myrna Cabello

Comentarios 1
  • #Cinefilo - 25 enero, 2018

    Muchas gracias por este aportazo, nunca bajen la calidad de las peliculas asi sean pesadas, el cine es bueno disfrutarlo en buena calidad, ustedes son los mejores