×

¿Problemas para descargar con Mozilla, EDGE? Deshabilita la opción "Abrir vinculos en una pestaña nueva" tal como lo muestra ésta imagen.

Atrapados En El Cubo (2021) PLACEBO Full HD 1080p Latino

282 vistas

Información de Atrapados En El Cubo (2021) PLACEBO Full HD 1080p Latino

Datos de la película

  • Calidad: Full 1080p
  • Audio: Se especifica abajo de la Sinopsis
  • Subtitulos: Español Latino SRT- FORZADOS SRT
  • Resolución: 1920x1080p
  • Formato: MKV
  • Codec: H.264
  • Encoder: Melkor
  • Mediainfo: Clic para Mostrar Datos Ver
  • Atrapados En El Cubo (2021) PLACEBO 1080p Latino.mkv
    Format                      : Matroska
    Format version              : Version 4
    File size                   : 5.11 GiB
    Duration                    : 1 h 48 min
    Overall bit rate            : 6 742 kb/s
    Movie name                  : Cube: Ichido haittara, saigo (2021) CinemaniaHDD.Net
    Encoded date                : UTC 2023-05-23 18:31:13
    Writing application         : mkvmerge v56.1.0 ('My Friend') 64-bit
    Writing library             : libebml v1.4.2 + libmatroska v1.6.4
    Attachments                 : CINEMANIAHD.png

    Video
    ID                          : 1
    Format                      : AVC
    Format/Info                 : Advanced Video Codec
    Format profile              : High@L4.1
    Format settings             : CABAC / 4 Ref Frames
    Format settings, CABAC      : Yes
    Format settings, Reference  : 4 frames
    Codec ID                    : V_MPEG4/ISO/AVC
    Duration                    : 1 h 48 min
    Bit rate                    : 4 974 kb/s
    Width                       : 1 920 pixels
    Height                      : 1 080 pixels
    Display aspect ratio        : 16:9
    Frame rate mode             : Constant
    Frame rate                  : 24.000 FPS
    Color space                 : YUV
    Chroma subsampling          : 4:2:0
    Bit depth                   : 8 bits
    Scan type                   : Progressive
    Bits/(Pixel*Frame)          : 0.100
    Stream size                 : 3.77 GiB (74%)
    Title                       : Full HD1080p [CinemaniaHDD]
    Writing library             : x264 core 163 r3059 b684ebe0
    Encoding settings           : cabac=1 / ref=4 / deblock=1:0:0 / analyse=0x3:0x133 / me=tesa / subme=11 / psy=1 / psy_rd=1.00:0.00 / mixed_ref=1 / me_range=24 / chroma_me=1 / trellis=2 / 8x8dct=1 / cqm=0 / deadzone=21,11 / fast_pskip=0 / chroma_qp_offset=-2 / threads=24 / lookahead_threads=6 / sliced_threads=0 / nr=0 / decimate=1 / interlaced=0 / bluray_compat=0 / constrained_intra=0 / bframes=16 / b_pyramid=2 / b_adapt=2 / b_bias=0 / direct=3 / weightb=1 / open_gop=0 / weightp=2 / keyint=240 / keyint_min=24 / scenecut=40 / intra_refresh=0 / rc_lookahead=60 / rc=crf / mbtree=1 / crf=19.0 / qcomp=0.60 / qpmin=0 / qpmax=69 / qpstep=4 / vbv_maxrate=62500 / vbv_bufsize=78125 / crf_max=0.0 / nal_hrd=none / filler=0 / ip_ratio=1.40 / aq=1:1.00
    Default                     : Yes
    Forced                      : Yes
    Color range                 : Limited
    Color primaries             : BT.709
    Transfer characteristics    : BT.709
    Matrix coefficients         : BT.709

    Audio #1
    ID                          : 2
    Format                      : AC-3
    Format/Info                 : Audio Coding 3
    Commercial name             : Dolby Digital
    Codec ID                    : A_AC3
    Duration                    : 1 h 48 min
    Bit rate mode               : Constant
    Bit rate                    : 256 kb/s
    Channel(s)                  : 2 channels
    Channel layout              : L R
    Sampling rate               : 48.0 kHz
    Frame rate                  : 31.250 FPS (1536 SPF)
    Compression mode            : Lossy
    Stream size                 : 199 MiB (4%)
    Title                       : Español Latino [CinemaniaHDD]
    Language                    : Spanish
    Service kind                : Complete Main
    Default                     : Yes
    Forced                      : Yes

    Audio #2
    ID                          : 3
    Format                      : DTS ES
    Format/Info                 : Digital Theater Systems
    Commercial name             : DTS-ES Matrix
    Codec ID                    : A_DTS
    Duration                    : 1 h 48 min
    Bit rate mode               : Constant
    Bit rate                    : 1 509 kb/s
    Channel(s)                  : 6 channels
    Channel(s)_Original         : 7 channels
    ChannelLayout_Original      : C L R Ls Rs Cs LFE
    Sampling rate               : 48.0 kHz
    Frame rate                  : 93.750 FPS (512 SPF)
    Bit depth                   : 24 bits
    Compression mode            : Lossy
    Stream size                 : 1.14 GiB (22%)
    Title                       : Japones [CinemaniaHDD]
    Language                    : Japanese
    Default                     : No
    Forced                      : No

    Text #1
    ID                          : 4
    Format                      : UTF-8
    Codec ID                    : S_TEXT/UTF8
    Codec ID/Info               : UTF-8 Plain Text
    Duration                    : 1 h 34 min
    Bit rate                    : 0 b/s
    Count of elements           : 6
    Stream size                 : 152 Bytes (0%)
    Title                       : Forzados-SRT [CinemaniaHDD]
    Language                    : Spanish
    Default                     : Yes
    Forced                      : Yes

    Text #2
    ID                          : 5
    Format                      : UTF-8
    Codec ID                    : S_TEXT/UTF8
    Codec ID/Info               : UTF-8 Plain Text
    Duration                    : 1 h 40 min
    Bit rate                    : 21 b/s
    Count of elements           : 708
    Stream size                 : 15.6 KiB (0%)
    Title                       : Español-SRT [CinemaniaHDD]
    Language                    : Spanish
    Default                     : No
    Forced                      : No

    Text #3
    ID                          : 6
    Format                      : UTF-8
    Codec ID                    : S_TEXT/UTF8
    Codec ID/Info               : UTF-8 Plain Text
    Duration                    : 1 h 44 min
    Bit rate                    : 17 b/s
    Count of elements           : 653
    Stream size                 : 13.4 KiB (0%)
    Title                       : Ingles-SRT [CinemaniaHDD]
    Language                    : English
    Default                     : No
    Forced                      : No

    Menu
    00:00:00.000                : Chapter 01
    00:09:34.208                : Chapter 02
    00:21:06.417                : Chapter 03
    00:28:51.708                : Chapter 04
    00:37:32.125                : Chapter 05
    00:47:59.042                : Chapter 06
    00:53:50.333                : Chapter 07
    01:02:44.417                : Chapter 08
    01:09:19.167                : Chapter 09
    01:22:20.167                : Chapter 10
    01:28:20.792                : Chapter 11
    01:44:57.875                : Chapter 12

  • Peso: 5.11 GiB

Sinopsis

Descargar Atrapados En El Cubo (2021) PLACEBO Full HD 1080p Latino. Un cubo misterioso. Seis hombres y mujeres se ven de repente atrapados en ‘Cube’. No está claro dónde está, ni por qué están atrapados, ni si hay una salida, ni si sobrevivirán, ni siquiera qué es la habitación.

Español Latino AC3 2.0 Web – Japones DTS 5.1 BD

Ficha técnica

Video trailer de la película

Enlaces de descarga

Rip de Bluray

Descargar Atrapados En El Cubo (2021) PLACEBO Full HD 1080p Latino




Aportes de DPeliculasHDmega la pass es:dpeliculashdmega.org Aportes de CinemaniaHD la pass es:cinemaniahdd.com Aportes recientes:cinemaniahdd.net

Películas relacionadas

descargar Atrapados En El Cubo (2021) PLACEBO Full HD 1080p Latino Full 1080p 1080p gratis, Atrapados En El Cubo (2021) PLACEBO Full HD 1080p Latino Full 1080p mega 1 link, Atrapados En El Cubo (2021) PLACEBO Full HD 1080p Latino Full 1080p pelicula completa, descargar Atrapados En El Cubo (2021) PLACEBO Full HD 1080p Latino Full 1080p gratis en mega.

Atrapados En El Cubo (2021) PLACEBO Full HD 1080p Latino pelicula full hd, Atrapados En El Cubo (2021) PLACEBO Full HD 1080p Latino mega latino, Atrapados En El Cubo (2021) PLACEBO Full HD 1080p Latino 4k latino, Atrapados En El Cubo (2021) PLACEBO Full HD 1080p Latino pelicula completa, Atrapados En El Cubo (2021) PLACEBO Full HD 1080p Latino descargar gratis, descargar Atrapados En El Cubo (2021) PLACEBO Full HD 1080p Latino pelicula latino, Atrapados En El Cubo (2021) PLACEBO Full HD 1080p Latino 1 link mega, Atrapados En El Cubo (2021) PLACEBO Full HD 1080p Latino 1 link google drive, Atrapados En El Cubo (2021) PLACEBO Full HD 1080p Latino hd 1080p latino.
Comentarios 0