×

¿Problemas para descargar con Mozilla, EDGE? Deshabilita la opción "Abrir vinculos en una pestaña nueva" tal como lo muestra ésta imagen.

Atlantis, Secretos al Descubierto (2017) WEB-DL 1080p Latino

1.752 vistas

Información de Atlantis, Secretos al Descubierto (2017) WEB-DL 1080p Latino

Datos de la película

  • Calidad: WEBDL
  • Audio: Español Latino AC3 2.0
  • Subtitulos: No
  • Resolución: 1920x1080
  • Formato: MKV
  • Codec: H.264
  • Encoder: cinemaniahdd
  • Mediainfo: Clic para Mostrar Datos Ver
  • Atlantis, Secretos al Descubierto (2017) WEB-DL 1080p Latino.mkv
    Format                      : Matroska
    Format version              : Version 4
    File size                   : 1.62 GiB
    Duration                    : 43 min 53 s
    Overall bit rate            : 5 299 kb/s
    Movie name                  : Atlantis, Secretos al Descubierto (2017) - CinemaniaHDD.Net
    Encoded date                : UTC 2020-03-26 05:58:43
    Writing application         : mkvmerge v42.0.0 ('Overtime') 64-bit
    Writing library             : libebml v1.3.10 + libmatroska v1.5.2

    Video
    ID                          : 1
    Format                      : AVC
    Format/Info                 : Advanced Video Codec
    Format profile              : High@L4
    Format settings             : CABAC / 2 Ref Frames
    Format settings, CABAC      : Yes
    Format settings, ReFrames   : 2 frames
    Codec ID                    : V_MPEG4/ISO/AVC
    Duration                    : 43 min 53 s
    Bit rate                    : 5 000 kb/s
    Width                       : 1 920 pixels
    Height                      : 1 080 pixels
    Display aspect ratio        : 16:9
    Frame rate mode             : Constant
    Frame rate                  : 29.970 (29970/1000) FPS
    Color space                 : YUV
    Chroma subsampling          : 4:2:0
    Bit depth                   : 8 bits
    Scan type                   : Progressive
    Bits/(Pixel*Frame)          : 0.080
    Stream size                 : 1.55 GiB (95%)
    Title                       : CinemaniaHDD
    Writing library             : x264 core 148 r2579M 73ae2d1
    Encoding settings           : cabac=1 / ref=2 / deblock=1:0:0 / analyse=0x3:0x113 / me=hex / subme=2 / psy=1 / psy_rd=1.00:0.00 / mixed_ref=0 / me_range=16 / chroma_me=1 / trellis=0 / 8x8dct=1 / cqm=0 / deadzone=21,11 / fast_pskip=1 / chroma_qp_offset=0 / threads=4 / lookahead_threads=1 / sliced_threads=0 / nr=250 / decimate=1 / interlaced=0 / bluray_compat=0 / stitchable=1 / constrained_intra=0 / bframes=0 / weightp=1 / keyint=250 / keyint_min=25 / scenecut=40 / intra_refresh=0 / rc_lookahead=10 / rc=2pass / mbtree=1 / bitrate=5000 / ratetol=1.0 / qcomp=0.60 / qpmin=5 / qpmax=69 / qpstep=4 / cplxblur=20.0 / qblur=0.5 / ip_ratio=1.40 / aq=1:1.00
    Language                    : English
    Default                     : Yes
    Forced                      : No
    Color range                 : Limited
    Color primaries             : BT.2020
    Transfer characteristics    : BT.2020 (10-bit)
    Matrix coefficients         : BT.709

    Audio
    ID                          : 2
    Format                      : AC-3
    Format/Info                 : Audio Coding 3
    Commercial name             : Dolby Digital
    Codec ID                    : A_AC3
    Duration                    : 43 min 53 s
    Bit rate mode               : Constant
    Bit rate                    : 256 kb/s
    Channel(s)                  : 2 channels
    Channel layout              : L R
    Sampling rate               : 48.0 kHz
    Frame rate                  : 31.250 FPS (1536 SPF)
    Bit depth                   : 16 bits
    Compression mode            : Lossy
    Stream size                 : 80.4 MiB (5%)
    Title                       : Español latino [CinemaniaHDD]
    Language                    : Spanish
    Service kind                : Complete Main
    Default                     : Yes
    Forced                      : No

     

  • Peso: 1.62 GiB

Sinopsis

James Cameron y Simcha Jacobovici van a la aventura de encontrar la ciudad perdida de Atlantis utilizando al filósofo griego Platón como un mapa del tesoro virtual.

Ficha técnica

Video trailer de la película

Enlaces de descarga

Rip de Bluray

Descargar Atlantis, Secretos al Descubierto (2017) WEB-DL 1080p Latino




Aportes de DPeliculasHDmega la pass es:dpeliculashdmega.org Aportes de CinemaniaHD la pass es:cinemaniahdd.com
Guardado en : Documental

Películas relacionadas

descargar Atlantis, Secretos al Descubierto (2017) WEB-DL 1080p Latino WEBDL 1080p gratis, Atlantis, Secretos al Descubierto (2017) WEB-DL 1080p Latino WEBDL mega 1 link, Atlantis, Secretos al Descubierto (2017) WEB-DL 1080p Latino WEBDL pelicula completa, descargar Atlantis, Secretos al Descubierto (2017) WEB-DL 1080p Latino WEBDL gratis en mega.

Atlantis, Secretos al Descubierto (2017) WEB-DL 1080p Latino pelicula full hd, Atlantis, Secretos al Descubierto (2017) WEB-DL 1080p Latino mega latino, Atlantis, Secretos al Descubierto (2017) WEB-DL 1080p Latino 4k latino, Atlantis, Secretos al Descubierto (2017) WEB-DL 1080p Latino pelicula completa, Atlantis, Secretos al Descubierto (2017) WEB-DL 1080p Latino descargar gratis, descargar Atlantis, Secretos al Descubierto (2017) WEB-DL 1080p Latino pelicula latino, Atlantis, Secretos al Descubierto (2017) WEB-DL 1080p Latino 1 link mega, Atlantis, Secretos al Descubierto (2017) WEB-DL 1080p Latino 1 link google drive, Atlantis, Secretos al Descubierto (2017) WEB-DL 1080p Latino hd 1080p latino.
Comentarios 0