Atlantis el imperio perdido (2001) HD 1080p Latino – CMHDD 1080p Latino

39 vistas
1 estrella2 estrellas3 estrellas4 estrellas5 estrellas (Ninguna valoración todavía)
Cargando...

Información de Atlantis el imperio perdido (2001) HD 1080p Latino – CMHDD 1080p Latino

Datos de la película

  • Calidad:
  • Audio: Español Latino AC3 5.1 BLURAY - Ingles AC3 5.1 BLURAY
  • Subtitulos: Español Latino SRT- FORZADOS SRT
  • Resolución: 1920x816p
  • Formato: MKV
  • Codec: H.264
  • Encoder: Dracarys
  • Mediainfo: Clic para Mostrar Datos Ver
  • Format                      : Matroska
    Format version              : Version 4
    File size                   : 3.28 GiB
    Duration                    : 1 h 35 min
    Overall bit rate            : 4 894 kb/s
    Movie name                  : Atlantis el imperio perdido (2001) HD 1080p Latino - CMHDD 1080p Latino
    Encoded date                : UTC 2020-08-07 18:49:31
    Writing application         : mkvmerge v46.0.0 ('No Deeper Escape') 64-bit
    Writing library             : libebml v1.3.10 + libmatroska v1.5.2

    Video
    ID                          : 1
    Format                      : AVC
    Format/Info                 : Advanced Video Codec
    Format profile              : High@L4.1
    Format settings             : CABAC / 5 Ref Frames
    Format settings, CABAC      : Yes
    Format settings, Reference  : 5 frames
    Codec ID                    : V_MPEG4/ISO/AVC
    Duration                    : 1 h 35 min
    Bit rate                    : 3 500 kb/s
    Width                       : 1 920 pixels
    Height                      : 816 pixels
    Display aspect ratio        : 2.35:1
    Frame rate mode             : Constant
    Frame rate                  : 23.976 (24000/1001) FPS
    Color space                 : YUV
    Chroma subsampling          : 4:2:0
    Bit depth                   : 8 bits
    Scan type                   : Progressive
    Bits/(Pixel*Frame)          : 0.093
    Stream size                 : 2.42 GiB (74%)
    Writing library             : x264 core 157 r2935 545de2f
    Encoding settings           : cabac=1 / ref=5 / deblock=1:0:0 / analyse=0x3:0x113 / me=hex / subme=8 / psy=1 / psy_rd=1.00:0.00 / mixed_ref=1 / me_range=16 / chroma_me=1 / trellis=2 / 8x8dct=1 / cqm=0 / deadzone=21,11 / fast_pskip=1 / chroma_qp_offset=-2 / threads=24 / lookahead_threads=4 / sliced_threads=0 / nr=0 / decimate=1 / interlaced=0 / bluray_compat=0 / constrained_intra=0 / bframes=3 / b_pyramid=2 / b_adapt=1 / b_bias=0 / direct=3 / weightb=1 / open_gop=0 / weightp=2 / keyint=240 / keyint_min=24 / scenecut=40 / intra_refresh=0 / rc_lookahead=50 / rc=abr / mbtree=1 / bitrate=3500 / ratetol=1.0 / qcomp=0.60 / qpmin=0 / qpmax=69 / qpstep=4 / vbv_maxrate=62500 / vbv_bufsize=78125 / nal_hrd=none / filler=0 / ip_ratio=1.40 / aq=1:1.00
    Default                     : Yes
    Forced                      : No
    Color range                 : Limited
    Color primaries             : BT.709
    Transfer characteristics    : BT.709
    Matrix coefficients         : BT.709

    Audio #1
    ID                          : 2
    Format                      : AC-3
    Format/Info                 : Audio Coding 3
    Commercial name             : Dolby Digital
    Codec ID                    : A_AC3
    Duration                    : 1 h 35 min
    Bit rate mode               : Constant
    Bit rate                    : 640 kb/s
    Channel(s)                  : 6 channels
    Channel layout              : L R C LFE Ls Rs
    Sampling rate               : 48.0 kHz
    Frame rate                  : 31.250 FPS (1536 SPF)
    Compression mode            : Lossy
    Delay relative to video     : -5 ms
    Stream size                 : 438 MiB (13%)
    Language                    : Spanish
    Service kind                : Complete Main
    Default                     : Yes
    Forced                      : No

    Audio #2
    ID                          : 3
    Format                      : AC-3
    Format/Info                 : Audio Coding 3
    Commercial name             : Dolby Digital
    Codec ID                    : A_AC3
    Duration                    : 1 h 35 min
    Bit rate mode               : Constant
    Bit rate                    : 640 kb/s
    Channel(s)                  : 6 channels
    Channel layout              : L R C LFE Ls Rs
    Sampling rate               : 48.0 kHz
    Frame rate                  : 31.250 FPS (1536 SPF)
    Compression mode            : Lossy
    Delay relative to video     : -5 ms
    Stream size                 : 439 MiB (13%)
    Language                    : English
    Service kind                : Complete Main
    Default                     : No
    Forced                      : No

    Text #1
    ID                          : 4
    Format                      : UTF-8
    Codec ID                    : S_TEXT/UTF8
    Codec ID/Info               : UTF-8 Plain Text
    Duration                    : 1 h 27 min
    Bit rate                    : 63 b/s
    Count of elements           : 1348
    Stream size                 : 41.0 KiB (0%)
    Language                    : Spanish
    Default                     : No
    Forced                      : No

    Text #2
    ID                          : 5
    Format                      : UTF-8
    Codec ID                    : S_TEXT/UTF8
    Codec ID/Info               : UTF-8 Plain Text
    Duration                    : 1 h 27 min
    Bit rate                    : 1 b/s
    Count of elements           : 22
    Stream size                 : 719 Bytes (0%)
    Title                       : Forzados
    Language                    : Spanish
    Default                     : Yes
    Forced                      : No

    Menu
    00:00:00.000                : :Chapter 1
    00:02:30.817                : :Chapter 2
    00:07:55.100                : :Chapter 3
    00:13:42.530                : :Chapter 4
    00:18:47.126                : :Chapter 5
    00:26:25.125                : :Chapter 6
    00:31:32.808                : :Chapter 7
    00:36:16.716                : :Chapter 8
    00:40:53.284                : :Chapter 9
    00:46:56.230                : :Chapter 10
    00:53:53.355                : :Chapter 11
    00:59:41.119                : :Chapter 12
    01:06:22.228                : :Chapter 13
    01:09:40.176                : :Chapter 14
    01:13:09.343                : :Chapter 15
    01:19:43.779                : :Chapter 16
    01:25:10.772                : :Chapter 17
    01:28:02.569                : :Chapter 18
    01:29:27.028                : :Chapter 19

  • Peso: 3.28 GiB

Sinopsis

Un joven aventurero llamado Milo encuentra un antiguo diario que contiene pistas de cómo llegar a Atlantis, el mítico reino hundido. Junto a otros intrépidos personajes Milo decide embarcarse en el Ulises, un impresionante submarino, en una arriesgada expedición al fondo del mar.

Ficha técnica

Video trailer de la película

Enlaces de descarga

Rip de Bluray

Descargar Atlantis el imperio perdido (2001) HD 1080p Latino – CMHDD 1080p Latino




Aportes de DPeliculasHDmega la pass es:dpeliculashdmega.org Aportes de CinemaniaHD la pass es:cinemaniahdd.com

Películas relacionadas

  • Rogue (2020) HD 1080p Latino

    Rogue (2020) HD 1080p Latino

    2020
    Rogue (2020) HD 1080p Latino

    0.0 1h 46m 2020

    Descargar Rogue (2020) HD 1080p Latino. O'Hara es una mercenaria que dirige un escuadrón de soldados...

    Director: M.J. Bassett

    Género: Acción

    Actores: Tamer Burjaq

  • Transcendence: Identidad Virtual (2014) 1080p Latino

    Transcendence: Identidad Virtual (2014) 1080p Latino

    2014
    Transcendence: Identidad Virtual (2014) 1080p Latino

    0.0 1h 59m 2014

    Descargar Transcendence: Identidad Virtual (2014) 1080p Latino. El Dr. Will Caster (Johnny Depp), prestigioso...

    Director: Wally Pfister

    Género: Ciencia ficción

    Actores: Xander Berkeley

  • Hermosas Criaturas (2013) 1080p Latino

    Hermosas Criaturas (2013) 1080p Latino

    2013
    Hermosas Criaturas (2013) 1080p Latino

    0.0 2h 4m 2013

    Descargar Hermosas Criaturas (2013) 1080p Latino. El hastío domina la vida de Ethan Wate, un chico que...

    Director: Richard LaGravenese

    Género: Drama

    Actores: Zoey Deutch

Comentarios 0