×

¿Problemas para descargar con Mozilla, EDGE? Deshabilita la opción "Abrir vinculos en una pestaña nueva" tal como lo muestra ésta imagen.

Asylum of Fear (2018) WEB-DL 1080p Latino

1.481 vistas

Información de Asylum of Fear (2018) WEB-DL 1080p Latino

Datos de la película

  • Calidad: WEBDL
  • Audio: Español Latino AC3 2.0 - Ingles AC3 2.0
  • Subtitulos: Español Latino SRT- FORZADOS SRT
  • Resolución: 1920x1080
  • Formato: MKV
  • Codec: H.264
  • Encoder: cinemaniahdd
  • Mediainfo: Clic para Mostrar Datos Ver
  • Asylum of Fear (2018) WEB-DL 1080p Latino.mkv
    Format                      : Matroska
    Format version              : Version 4
    File size                   : 3.05 GiB
    Duration                    : 1 h 19 min
    Overall bit rate            : 5 500 kb/s
    Movie name                  : Asylum of Fear (2018) - CinemaniaHDD.Net
    Encoded date                : UTC 2019-12-31 01:32:25
    Writing application         : mkvmerge v38.0.0 ('The Silent Type') 64-bit
    Writing library             : libebml v1.3.9 + libmatroska v1.5.2

    Video
    ID                          : 1
    Format                      : AVC
    Format/Info                 : Advanced Video Codec
    Format profile              : High@L4
    Format settings             : CABAC / 4 Ref Frames
    Format settings, CABAC      : Yes
    Format settings, ReFrames   : 4 frames
    Codec ID                    : V_MPEG4/ISO/AVC
    Duration                    : 1 h 19 min
    Bit rate                    : 4 986 kb/s
    Width                       : 1 904 pixels
    Height                      : 1 064 pixels
    Display aspect ratio        : 16:9
    Frame rate mode             : Constant
    Frame rate                  : 23.976 (23976/1000) FPS
    Color space                 : YUV
    Chroma subsampling          : 4:2:0
    Bit depth                   : 8 bits
    Scan type                   : Progressive
    Bits/(Pixel*Frame)          : 0.103
    Stream size                 : 2.76 GiB (91%)
    Title                       : CinemaniaHDD
    Language                    : English
    Default                     : Yes
    Forced                      : No
    Color range                 : Limited
    Color primaries             : BT.709
    Transfer characteristics    : BT.709
    Matrix coefficients         : BT.709

    Audio #1
    ID                          : 2
    Format                      : AC-3
    Format/Info                 : Audio Coding 3
    Commercial name             : Dolby Digital
    Codec ID                    : A_AC3
    Duration                    : 1 h 19 min
    Bit rate mode               : Constant
    Bit rate                    : 256 kb/s
    Channel(s)                  : 2 channels
    Channel layout              : L R
    Sampling rate               : 48.0 kHz
    Frame rate                  : 31.250 FPS (1536 SPF)
    Bit depth                   : 16 bits
    Compression mode            : Lossy
    Delay relative to video     : -42 ms
    Stream size                 : 145 MiB (5%)
    Title                       : Español latino [CinemaniaHDD]
    Language                    : Spanish
    Service kind                : Complete Main
    Default                     : Yes
    Forced                      : No

    Audio #2
    ID                          : 3
    Format                      : AC-3
    Format/Info                 : Audio Coding 3
    Commercial name             : Dolby Digital
    Codec ID                    : A_AC3
    Duration                    : 1 h 19 min
    Bit rate mode               : Constant
    Bit rate                    : 256 kb/s
    Channel(s)                  : 2 channels
    Channel layout              : L R
    Sampling rate               : 48.0 kHz
    Frame rate                  : 31.250 FPS (1536 SPF)
    Bit depth                   : 16 bits
    Compression mode            : Lossy
    Delay relative to video     : -42 ms
    Stream size                 : 145 MiB (5%)
    Title                       : Inglés [CinemaniaHDD]
    Language                    : English
    Service kind                : Complete Main
    Default                     : No
    Forced                      : No

    Text #1
    ID                          : 4
    Format                      : UTF-8
    Codec ID                    : S_TEXT/UTF8
    Codec ID/Info               : UTF-8 Plain Text
    Duration                    : 54 min 53 s
    Bit rate                    : 0 b/s
    Count of elements           : 4
    Stream size                 : 140 Bytes (0%)
    Title                       : Forzados [CinemaniaHDD]
    Language                    : Spanish
    Default                     : Yes
    Forced                      : Yes

    Text #2
    ID                          : 5
    Format                      : UTF-8
    Codec ID                    : S_TEXT/UTF8
    Codec ID/Info               : UTF-8 Plain Text
    Duration                    : 1 h 17 min
    Bit rate                    : 60 b/s
    Count of elements           : 873
    Stream size                 : 34.4 KiB (0%)
    Title                       : Español latino [CinemaniaHDD]
    Language                    : Spanish
    Default                     : No
    Forced                      : No

    Menu
    00:00:00.000                : en:1
    00:07:14.000                : en:2
    00:13:59.000                : en:3
    00:20:42.000                : en:4
    00:27:59.000                : en:5
    00:35:36.000                : en:6
    00:42:43.000                : en:7
    00:49:36.000                : en:8
    00:55:26.000                : en:9
    01:02:59.000                : en:10
    01:10:58.000                : en:11
    01:17:41.000                : en:12

     

  • Peso: 3.05 GiB

Sinopsis

«Asylum of Fear» sigue a un equipo de investigadores paranormales que realizan un último trabajo en una institución mental embrujada donde los niños supuestamente han desaparecido. Mientras buscan evidencia de lo que está rondando por el edificio abandonado, tropiezan con pistas que revelan lo que hizo que el ex médico jefe se estrellara y se lanzara a matar en los pasillos de décadas atrás. Lamentablemente, cuanto más descubren, más luchan para salir del manicomio.

Ficha técnica

Video trailer de la película

Enlaces de descarga

Rip de Bluray

Descargar Asylum of Fear (2018) WEB-DL 1080p Latino




Aportes de DPeliculasHDmega la pass es:dpeliculashdmega.org Aportes de CinemaniaHD la pass es:cinemaniahdd.com
Guardado en : Misterio , Suspenso , Terror

Películas relacionadas

descargar Asylum of Fear (2018) WEB-DL 1080p Latino WEBDL 1080p gratis, Asylum of Fear (2018) WEB-DL 1080p Latino WEBDL mega 1 link, Asylum of Fear (2018) WEB-DL 1080p Latino WEBDL pelicula completa, descargar Asylum of Fear (2018) WEB-DL 1080p Latino WEBDL gratis en mega.

Asylum of Fear (2018) WEB-DL 1080p Latino pelicula full hd, Asylum of Fear (2018) WEB-DL 1080p Latino mega latino, Asylum of Fear (2018) WEB-DL 1080p Latino 4k latino, Asylum of Fear (2018) WEB-DL 1080p Latino pelicula completa, Asylum of Fear (2018) WEB-DL 1080p Latino descargar gratis, descargar Asylum of Fear (2018) WEB-DL 1080p Latino pelicula latino, Asylum of Fear (2018) WEB-DL 1080p Latino 1 link mega, Asylum of Fear (2018) WEB-DL 1080p Latino 1 link google drive, Asylum of Fear (2018) WEB-DL 1080p Latino hd 1080p latino.
Comentarios 0