×

¿Problemas para descargar con Mozilla, EDGE? Deshabilita la opción "Abrir vinculos en una pestaña nueva" tal como lo muestra ésta imagen.

Asústame (2020) REMUX 1080p Latino

236 vistas

Información de Asústame (2020) REMUX 1080p Latino

Datos de la película

  • Calidad: Full 1080p
  • Audio: Español Latino AC3 2.0 WEB-DL - Ingles DTS 5.1 BLURAY
  • Subtitulos: Español Latino PGS - Ingles PGS
  • Resolución: 1920x1080p
  • Formato: MKV
  • Codec: H.264
  • Encoder: Melkor
  • Mediainfo: Clic para Mostrar Datos Ver
  • Asustame (2020) REMUX 1080p Latino.mkv Format                      : Matroska Format version              : Version 4 File size                   : 17.1 GiB Duration                    : 1 h 43 min Overall bit rate mode       : Variable Overall bit rate            : 23.7 Mb/s Movie name                  : Scare Me (2020) CinemaniaHDD.Net Encoded date                : UTC 2023-01-28 06:36:03 Writing application         : mkvmerge v56.1.0 ('My Friend') 64-bit Writing library             : libebml v1.4.2 + libmatroska v1.6.4 Attachments                 : CINEMANIAHD.png Video ID                          : 1 Format                      : AVC Format/Info                 : Advanced Video Codec Format profile              : High@L4.1 Format settings             : CABAC / 4 Ref Frames Format settings, CABAC      : Yes Format settings, Reference  : 4 frames Codec ID                    : V_MPEG4/ISO/AVC Duration                    : 1 h 43 min Bit rate mode               : Variable Bit rate                    : 19.8 Mb/s Maximum bit rate            : 36.0 Mb/s Width                       : 1 920 pixels Height                      : 1 080 pixels Display aspect ratio        : 16:9 Frame rate mode             : Constant Frame rate                  : 23.976 (24000/1001) FPS Color space                 : YUV Chroma subsampling          : 4:2:0 Bit depth                   : 8 bits Scan type                   : Progressive Bits/(Pixel*Frame)          : 0.398 Stream size                 : 14.3 GiB (84%) Title                       : REMUX HD1080p [CinemaniaHDD] Language                    : English Default                     : Yes Forced                      : Yes Audio #1 ID                          : 2 Format                      : AC-3 Format/Info                 : Audio Coding 3 Commercial name             : Dolby Digital Codec ID                    : A_AC3 Duration                    : 1 h 43 min Bit rate mode               : Constant Bit rate                    : 256 kb/s Channel(s)                  : 2 channels Channel layout              : L R Sampling rate               : 48.0 kHz Frame rate                  : 31.250 FPS (1536 SPF) Compression mode            : Lossy Stream size                 : 190 MiB (1%) Title                       : Español Latino [CinemaniaHDD] Language                    : Spanish Service kind                : Complete Main Default                     : Yes Forced                      : Yes Audio #2 ID                          : 3 Format                      : DTS XLL Format/Info                 : Digital Theater Systems Commercial name             : DTS-HD Master Audio Codec ID                    : A_DTS Duration                    : 1 h 43 min Bit rate mode               : Variable Bit rate                    : 3 572 kb/s Channel(s)                  : 6 channels Channel layout              : C L R Ls Rs LFE Sampling rate               : 48.0 kHz Frame rate                  : 93.750 FPS (512 SPF) Bit depth                   : 24 bits Compression mode            : Lossless Stream size                 : 2.59 GiB (15%) Title                       : Ingles [CinemaniaHDD] Language                    : English Default                     : No Forced                      : No Text #1 ID                          : 4 Format                      : PGS Muxing mode                 : zlib Codec ID                    : S_HDMV/PGS Codec ID/Info               : Picture based subtitle format used on BDs/HD-DVDs Duration                    : 1 h 40 min Bit rate                    : 25.0 kb/s Count of elements           : 3182 Stream size                 : 18.0 MiB (0%) Title                       : Español-PGS [CinemaniaHDD] Language                    : Spanish Default                     : No Forced                      : No Text #2 ID                          : 5 Format                      : PGS Muxing mode                 : zlib Codec ID                    : S_HDMV/PGS Codec ID/Info               : Picture based subtitle format used on BDs/HD-DVDs Duration                    : 1 h 43 min Bit rate                    : 34.2 kb/s Count of elements           : 4004 Stream size                 : 25.3 MiB (0%) Title                       : Ingles [CinemaniaHDD] Language                    : English Default                     : No Forced                      : No Text #3 ID                          : 6 Format                      : UTF-8 Codec ID                    : S_TEXT/UTF8 Codec ID/Info               : UTF-8 Plain Text Duration                    : 1 h 40 min Bit rate                    : 0 b/s Count of elements           : 9 Stream size                 : 319 Bytes (0%) Title                       : Forzados-SRT [CinemaniaHDD] Language                    : Spanish Default                     : Yes Forced                      : Yes Text #4 ID                          : 7 Format                      : UTF-8 Codec ID                    : S_TEXT/UTF8 Codec ID/Info               : UTF-8 Plain Text Duration                    : 1 h 40 min Bit rate                    : 67 b/s Count of elements           : 1405 Stream size                 : 49.6 KiB (0%) Title                       : Español-SRT [CinemaniaHDD] Language                    : Spanish Default                     : No Forced                      : No Menu 00:00:00.000                : Special Effects Bonanza 00:10:44.310                : Big Imagination 00:14:46.928                : Very Jaws 00:45:10.833                : It's Your Turn 01:02:24.449                : Venus 01:15:28.691                : Pizza Man of the Year 01:31:34.447                : Run! 01:41:04.016                : End Credits
  • Peso: 17.1 GiB

Sinopsis

Descargar Asústame (2020) REMUX 1080p Latino. Durante un corte de energía, dos extraños cuentan historias de miedo. Cuanto más se comprometen con sus cuentos, más cobran vida las historias en su cabaña Catskills. Los horrores de la realidad se manifiestan cuando Fred se enfrenta a su miedo final.

Ficha técnica

  • Titulo original: Scare Me
  • Fecha de lanzamiento: 24-01-2020 (United States of America)
  • Director: Josh Ruben
  • Género: Comedia, Remux, Terror

Video trailer de la película

Enlaces de descarga

Rip de Bluray

Descargar Asústame (2020) REMUX 1080p Latino




Aportes de DPeliculasHDmega la pass es:dpeliculashdmega.org Aportes de CinemaniaHD la pass es:cinemaniahdd.com Aportes recientes:cinemaniahdd.net
Guardado en : Comedia , Remux , Terror

Películas relacionadas

  • Cómo robar un millón (1966) REMUX 1080p Latino-CMHDD

    Cómo robar un millón (1966) REMUX 1080p Latino-CMHDD

    1966
    Cómo robar un millón (1966) REMUX 1080p Latino-CMHDD

    2h 3m 1966

    Descargar Cómo robar un millón (1966) REMUX 1080p Latino-CMHDD. El padre de Nicole, un legendario coleccionista...

    Director: William Wyler

    Género: Comedia

    Actores: Roger Tréville

  • Milagros Inesperados (1999) REMUX 1080p Latino-CMHDD

    Milagros Inesperados (1999) REMUX 1080p Latino-CMHDD

    1999
    Milagros Inesperados (1999) REMUX 1080p Latino-CMHDD

    3h 9m 1999

    Descargar Milagros Inesperados (1999) REMUX 1080p Latino-CMHDD. En el sur de los Estados Unidos, en plena...

    Director: Susan Malerstein

    Género: Crimen

    Actores: William Sadler

  • Wanted Man (2024) REMUX 1080p Latino

    Wanted Man (2024) REMUX 1080p Latino

    2024
    Wanted Man (2024) REMUX 1080p Latino

    1h 25m 2024

    Descargar Wanted Man (2024) REMUX 1080p Latino. Sigue a un oficial de policía que debe recuperar a un...

    Director: Kevin Leslie

    Género: Acción

    Actores: Xzavier Estrada

descargar Asústame (2020) REMUX 1080p Latino Full 1080p 1080p gratis, Asústame (2020) REMUX 1080p Latino Full 1080p mega 1 link, Asústame (2020) REMUX 1080p Latino Full 1080p pelicula completa, descargar Asústame (2020) REMUX 1080p Latino Full 1080p gratis en mega.

Asústame (2020) REMUX 1080p Latino pelicula full hd, Asústame (2020) REMUX 1080p Latino mega latino, Asústame (2020) REMUX 1080p Latino 4k latino, Asústame (2020) REMUX 1080p Latino pelicula completa, Asústame (2020) REMUX 1080p Latino descargar gratis, descargar Asústame (2020) REMUX 1080p Latino pelicula latino, Asústame (2020) REMUX 1080p Latino 1 link mega, Asústame (2020) REMUX 1080p Latino 1 link google drive, Asústame (2020) REMUX 1080p Latino hd 1080p latino.
Comentarios 0