×

¿Problemas para descargar con Mozilla, EDGE? Deshabilita la opción "Abrir vinculos en una pestaña nueva" tal como lo muestra ésta imagen.

Asústame (2020) HD 1080p Latino

228 vistas

Información de Asústame (2020) HD 1080p Latino

Datos de la película

  • Calidad: 1080p
  • Audio: Español Latino AC3 2.0 WEB-DL - Ingles AC3 5.1 BLURAY
  • Subtitulos: Español Latino SRT- FORZADOS SRT
  • Resolución: 1920x960p
  • Formato: MKV
  • Codec: H.264
  • Encoder: Melkor
  • Mediainfo: Clic para Mostrar Datos Ver
  • Asustame (2020) HD 1080p Latino.mkv Format                      : Matroska Format version              : Version 4 File size                   : 3.01 GiB Duration                    : 1 h 43 min Overall bit rate            : 4 159 kb/s Movie name                  : Scare Me (2020) CinemaniaHDD.Net Encoded date                : UTC 2023-01-28 15:32:23 Writing application         : mkvmerge v56.1.0 ('My Friend') 64-bit Writing library             : libebml v1.4.2 + libmatroska v1.6.4 Attachments                 : CINEMANIAHD.png Video ID                          : 1 Format                      : AVC Format/Info                 : Advanced Video Codec Format profile              : High@L4.1 Format settings             : CABAC / 4 Ref Frames Format settings, CABAC      : Yes Format settings, Reference  : 4 frames Codec ID                    : V_MPEG4/ISO/AVC Duration                    : 1 h 43 min Bit rate                    : 3 500 kb/s Width                       : 1 920 pixels Height                      : 960 pixels Display aspect ratio        : 2.000 Frame rate mode             : Constant Frame rate                  : 23.976 (24000/1001) FPS Color space                 : YUV Chroma subsampling          : 4:2:0 Bit depth                   : 8 bits Scan type                   : Progressive Bits/(Pixel*Frame)          : 0.079 Stream size                 : 2.50 GiB (83%) Title                       : HD1080p [CinemaniaHDD] Writing library             : x264 core 163 r3059 b684ebe0 Encoding settings           : cabac=1 / ref=4 / deblock=1:-1:-1 / analyse=0x3:0x133 / me=umh / subme=9 / psy=1 / psy_rd=1.00:0.15 / mixed_ref=1 / me_range=16 / chroma_me=1 / trellis=2 / 8x8dct=1 / cqm=0 / deadzone=21,11 / fast_pskip=1 / chroma_qp_offset=-3 / threads=24 / lookahead_threads=2 / sliced_threads=0 / nr=0 / decimate=1 / interlaced=0 / bluray_compat=0 / constrained_intra=0 / bframes=3 / b_pyramid=2 / b_adapt=2 / b_bias=0 / direct=3 / weightb=1 / open_gop=0 / weightp=2 / keyint=240 / keyint_min=24 / scenecut=40 / intra_refresh=0 / rc_lookahead=60 / rc=abr / mbtree=1 / bitrate=3500 / ratetol=1.0 / qcomp=0.60 / qpmin=0 / qpmax=69 / qpstep=4 / vbv_maxrate=62500 / vbv_bufsize=78125 / nal_hrd=none / filler=0 / ip_ratio=1.40 / aq=1:1.00 Default                     : Yes Forced                      : Yes Color range                 : Limited Color primaries             : BT.709 Transfer characteristics    : BT.709 Matrix coefficients         : BT.709 Audio #1 ID                          : 2 Format                      : AC-3 Format/Info                 : Audio Coding 3 Commercial name             : Dolby Digital Codec ID                    : A_AC3 Duration                    : 1 h 43 min Bit rate mode               : Constant Bit rate                    : 256 kb/s Channel(s)                  : 2 channels Channel layout              : L R Sampling rate               : 48.0 kHz Frame rate                  : 31.250 FPS (1536 SPF) Compression mode            : Lossy Delay relative to video     : -5 ms Stream size                 : 190 MiB (6%) Title                       : Español Latino [CinemaniaHDD] Language                    : Spanish Service kind                : Complete Main Default                     : Yes Forced                      : Yes Audio #2 ID                          : 3 Format                      : AC-3 Format/Info                 : Audio Coding 3 Commercial name             : Dolby Digital Codec ID                    : A_AC3 Duration                    : 1 h 43 min Bit rate mode               : Constant Bit rate                    : 448 kb/s Channel(s)                  : 6 channels Channel layout              : L R C LFE Ls Rs Sampling rate               : 48.0 kHz Frame rate                  : 31.250 FPS (1536 SPF) Compression mode            : Lossy Delay relative to video     : -5 ms Stream size                 : 332 MiB (11%) Title                       : Ingles [CinemaniaHDD] Language                    : English Service kind                : Complete Main Default                     : No Forced                      : No Text #1 ID                          : 4 Format                      : UTF-8 Codec ID                    : S_TEXT/UTF8 Codec ID/Info               : UTF-8 Plain Text Duration                    : 1 h 40 min Bit rate                    : 0 b/s Count of elements           : 9 Stream size                 : 319 Bytes (0%) Title                       : Forzados-SRT [CinemaniaHDD] Language                    : Spanish Default                     : Yes Forced                      : Yes Text #2 ID                          : 5 Format                      : UTF-8 Codec ID                    : S_TEXT/UTF8 Codec ID/Info               : UTF-8 Plain Text Duration                    : 1 h 40 min Bit rate                    : 67 b/s Count of elements           : 1405 Stream size                 : 49.6 KiB (0%) Title                       : Español-SRT [CinemaniaHDD] Language                    : Spanish Default                     : No Forced                      : No Menu 00:00:00.000                : Special Effects Bonanza 00:10:44.310                : Big Imagination 00:14:46.928                : Very Jaws 00:45:10.833                : It's Your Turn 01:02:24.449                : Venus 01:15:28.691                : Pizza Man of the Year 01:31:34.447                : Run! 01:41:04.016                : End Credits
  • Peso: 3.01 GiB

Sinopsis

Descargar Asústame (2020) HD 1080p Latino. Durante un corte de energía, dos extraños cuentan historias de miedo. Cuanto más se comprometen con sus cuentos, más cobran vida las historias en su cabaña Catskills. Los horrores de la realidad se manifiestan cuando Fred se enfrenta a su miedo final.

Ficha técnica

Video trailer de la película

Enlaces de descarga

Rip de Bluray

Descargar Asústame (2020) HD 1080p Latino




Aportes de DPeliculasHDmega la pass es:dpeliculashdmega.org Aportes de CinemaniaHD la pass es:cinemaniahdd.com Aportes recientes:cinemaniahdd.net
Guardado en : Comedia , HD 1080p , Terror

Películas relacionadas

descargar Asústame (2020) HD 1080p Latino 1080p 1080p gratis, Asústame (2020) HD 1080p Latino 1080p mega 1 link, Asústame (2020) HD 1080p Latino 1080p pelicula completa, descargar Asústame (2020) HD 1080p Latino 1080p gratis en mega.

Asústame (2020) HD 1080p Latino pelicula full hd, Asústame (2020) HD 1080p Latino mega latino, Asústame (2020) HD 1080p Latino 4k latino, Asústame (2020) HD 1080p Latino pelicula completa, Asústame (2020) HD 1080p Latino descargar gratis, descargar Asústame (2020) HD 1080p Latino pelicula latino, Asústame (2020) HD 1080p Latino 1 link mega, Asústame (2020) HD 1080p Latino 1 link google drive, Asústame (2020) HD 1080p Latino hd 1080p latino.
Comentarios 0