×

¿Problemas para descargar con Mozilla, EDGE? Deshabilita la opción "Abrir vinculos en una pestaña nueva" tal como lo muestra ésta imagen.

Astérix: El secreto de la poción mágica (2018) 1080p Latino

1.536 vistas

Información de Astérix: El secreto de la poción mágica (2018) 1080p Latino

Datos de la película

  • Calidad: 1080p
  • Audio: Español Latino AC3 2.0 DVD - Ingles AC3 5.1 BLURAY
  • Subtitulos: Español Latino SRT- FORZADOS SRT
  • Resolución: 1920x802
  • Formato: MKV
  • Codec: H.264
  • Encoder: cinemaniahdd
  • Mediainfo: Clic para Mostrar Datos Ver
  • Astérix -  El secreto de la poción mágica (2018) 1080p Latino.mkv
    Format                      : Matroska
    Format version              : Version 4
    File size                   : 3.07 GiB
    Duration                    : 1 h 25 min
    Overall bit rate            : 5 162 kb/s
    Movie name                  : Astérix -  El secreto de la poción mágica (2018) - CinemaniaHDD.Net
    Encoded date                : UTC 2019-10-09 04:12:19
    Writing application         : mkvmerge v38.0.0 ('The Silent Type') 64-bit
    Writing library             : libebml v1.3.9 + libmatroska v1.5.2

    Video
    ID                          : 1
    Format                      : AVC
    Format/Info                 : Advanced Video Codec
    Format profile              : High@L4
    Format settings             : CABAC / 5 Ref Frames
    Format settings, CABAC      : Yes
    Format settings, ReFrames   : 5 frames
    Format settings, GOP        : N=1
    Codec ID                    : V_MPEG4/ISO/AVC
    Duration                    : 1 h 25 min
    Bit rate                    : 4 520 kb/s
    Width                       : 1 920 pixels
    Height                      : 802 pixels
    Display aspect ratio        : 2.40:1
    Frame rate mode             : Constant
    Frame rate                  : 23.976 FPS
    Color space                 : YUV
    Chroma subsampling          : 4:2:0
    Bit depth                   : 8 bits
    Scan type                   : Progressive
    Bits/(Pixel*Frame)          : 0.122
    Stream size                 : 2.69 GiB (88%)
    Title                       : CinemaniaHDD
    Language                    : English
    Default                     : Yes
    Forced                      : No
    Color range                 : Limited
    Color primaries             : BT.709
    Transfer characteristics    : BT.709
    Matrix coefficients         : BT.709

    Audio #1
    ID                          : 2
    Format                      : AC-3
    Format/Info                 : Audio Coding 3
    Commercial name             : Dolby Digital
    Codec ID                    : A_AC3
    Duration                    : 1 h 25 min
    Bit rate mode               : Constant
    Bit rate                    : 256 kb/s
    Channel(s)                  : 2 channels
    Channel layout              : L R
    Sampling rate               : 48.0 kHz
    Frame rate                  : 31.250 FPS (1536 SPF)
    Bit depth                   : 16 bits
    Compression mode            : Lossy
    Delay relative to video     : -42 ms
    Stream size                 : 156 MiB (5%)
    Title                       : Español latino [CinemaniaHDD]
    Language                    : Spanish
    Service kind                : Complete Main
    Default                     : Yes
    Forced                      : No

    Audio #2
    ID                          : 3
    Format                      : AC-3
    Format/Info                 : Audio Coding 3
    Commercial name             : Dolby Digital
    Codec ID                    : A_AC3
    Duration                    : 1 h 25 min
    Bit rate mode               : Constant
    Bit rate                    : 384 kb/s
    Channel(s)                  : 6 channels
    Channel layout              : L R C LFE Ls Rs
    Sampling rate               : 48.0 kHz
    Frame rate                  : 31.250 FPS (1536 SPF)
    Bit depth                   : 16 bits
    Compression mode            : Lossy
    Delay relative to video     : -42 ms
    Stream size                 : 234 MiB (7%)
    Title                       : Inglés [CinemaniaHDD]
    Language                    : English
    Service kind                : Complete Main
    Default                     : No
    Forced                      : No

    Text #1
    ID                          : 4
    Format                      : UTF-8
    Codec ID                    : S_TEXT/UTF8
    Codec ID/Info               : UTF-8 Plain Text
    Duration                    : 13 min 47 s
    Bit rate                    : 1 b/s
    Count of elements           : 3
    Stream size                 : 107 Bytes (0%)
    Title                       : Forzados [CinemaniaHDD]
    Language                    : Spanish
    Default                     : Yes
    Forced                      : Yes

    Text #2
    ID                          : 5
    Format                      : UTF-8
    Codec ID                    : S_TEXT/UTF8
    Codec ID/Info               : UTF-8 Plain Text
    Duration                    : 1 h 17 min
    Bit rate                    : 57 b/s
    Count of elements           : 1098
    Stream size                 : 32.8 KiB (0%)
    Title                       : Español latino [CinemaniaHDD]
    Language                    : Spanish
    Default                     : No
    Forced                      : No

    Menu
    00:00:00.000                : en:1
    00:06:32.434                : en:2
    00:14:16.564                : en:3
    00:22:31.850                : en:4
    00:29:35.564                : en:5
    00:37:06.431                : en:6
    00:45:20.550                : en:7
    00:53:28.204                : en:8
    01:01:29.310                : en:9
    01:08:51.418                : en:10
    01:15:11.505                : en:11
    01:21:28.882                : en:12

     

  • Peso: 3.07 GiB

Sinopsis

Tras sufrir una caída recogiendo muérdago, Panoramix decide que ha llegado la hora de asegurar el futuro del pueblo. Acompañado por Asterix y Obelix, emprende la búsqueda de un talentoso druida al que quiere transmitirle el secreto de la poción mágica.

Ficha técnica

Video trailer de la película

Enlaces de descarga

Rip de Bluray

Descargar Astérix: El secreto de la poción mágica (2018) 1080p Latino




Aportes de DPeliculasHDmega la pass es:dpeliculashdmega.org Aportes de CinemaniaHD la pass es:cinemaniahdd.com
Guardado en : Animación , Aventura , Comedia , Familia , HD 1080p

Películas relacionadas

descargar Astérix: El secreto de la poción mágica (2018) 1080p Latino 1080p 1080p gratis, Astérix: El secreto de la poción mágica (2018) 1080p Latino 1080p mega 1 link, Astérix: El secreto de la poción mágica (2018) 1080p Latino 1080p pelicula completa, descargar Astérix: El secreto de la poción mágica (2018) 1080p Latino 1080p gratis en mega.

Astérix: El secreto de la poción mágica (2018) 1080p Latino pelicula full hd, Astérix: El secreto de la poción mágica (2018) 1080p Latino mega latino, Astérix: El secreto de la poción mágica (2018) 1080p Latino 4k latino, Astérix: El secreto de la poción mágica (2018) 1080p Latino pelicula completa, Astérix: El secreto de la poción mágica (2018) 1080p Latino descargar gratis, descargar Astérix: El secreto de la poción mágica (2018) 1080p Latino pelicula latino, Astérix: El secreto de la poción mágica (2018) 1080p Latino 1 link mega, Astérix: El secreto de la poción mágica (2018) 1080p Latino 1 link google drive, Astérix: El secreto de la poción mágica (2018) 1080p Latino hd 1080p latino.
Comentarios 0