×

¿Problemas para descargar con Mozilla, EDGE? Deshabilita la opción "Abrir vinculos en una pestaña nueva" tal como lo muestra ésta imagen.

La Invasión (2019) REMUX 1080p Latino

845 vistas

Información de La Invasión (2019) REMUX 1080p Latino

Datos de la película

  • Calidad: Full 1080p
  • Audio: Español Latino AC3 5.1 DVD - Ingles DTS 5.1 BLURAY
  • Subtitulos: Español Latino SRT- FORZADOS SRT
  • Resolución: 1920x1080p
  • Formato: MKV
  • Codec: H.264
  • Encoder: CinefiloCool
  • Mediainfo: Clic para Mostrar Datos Ver
  • La Invasion (2019) REMUX 1080p Latino-CMHDD.mkv
    Format                      : Matroska
    Format version              : Version 4
    File size                   : 20.0 GiB
    Duration                    : 1 h 33 min
    Overall bit rate mode       : Variable
    Overall bit rate            : 30.6 Mb/s
    Movie name                  : CinemaniaHDD.Net
    Encoded date                : UTC 2020-01-03 16:56:56
    Writing application         : mkvmerge v38.0.0 ('The Silent Type') 64-bit
    Writing library             : libebml v1.3.9 + libmatroska v1.5.2
    Attachments                 : CINEMANIAHD.png

    Video
    ID                          : 1
    Format                      : AVC
    Format/Info                 : Advanced Video Codec
    Format profile              : High@L4.1
    Format settings             : CABAC / 4 Ref Frames
    Format settings, CABAC      : Yes
    Format settings, ReFrames   : 4 frames
    Codec ID                    : V_MPEG4/ISO/AVC
    Duration                    : 1 h 33 min
    Bit rate mode               : Constant
    Bit rate                    : 26.4 Mb/s
    Nominal bit rate            : 28.0 Mb/s
    Width                       : 1 920 pixels
    Height                      : 1 080 pixels
    Display aspect ratio        : 16:9
    Frame rate mode             : Constant
    Frame rate                  : 23.976 (24000/1001) FPS
    Color space                 : YUV
    Chroma subsampling          : 4:2:0
    Bit depth                   : 8 bits
    Scan type                   : Progressive
    Bits/(Pixel*Frame)          : 0.530
    Stream size                 : 17.2 GiB (86%)
    Title                       : Full HD1080p [REMUX]
    Default                     : Yes
    Forced                      : Yes
    Color range                 : Limited
    Color primaries             : BT.709
    Transfer characteristics    : BT.709
    Matrix coefficients         : BT.709

    Audio #1
    ID                          : 2
    Format                      : AC-3
    Format/Info                 : Audio Coding 3
    Commercial name             : Dolby Digital
    Codec ID                    : A_AC3
    Duration                    : 1 h 33 min
    Bit rate mode               : Constant
    Bit rate                    : 384 kb/s
    Channel(s)                  : 6 channels
    Channel layout              : L R C LFE Ls Rs
    Sampling rate               : 48.0 kHz
    Frame rate                  : 31.250 FPS (1536 SPF)
    Bit depth                   : 16 bits
    Compression mode            : Lossy
    Stream size                 : 257 MiB (1%)
    Title                       : AC3_5.1_DVD_Esp
    Language                    : Spanish
    Service kind                : Complete Main
    Default                     : Yes
    Forced                      : Yes

    Audio #2
    ID                          : 3
    Format                      : DTS XLL
    Format/Info                 : Digital Theater Systems
    Commercial name             : DTS-HD Master Audio
    Codec ID                    : A_DTS
    Duration                    : 1 h 33 min
    Bit rate mode               : Variable
    Bit rate                    : 3 866 kb/s
    Channel(s)                  : 6 channels
    Channel layout              : C L R Ls Rs LFE
    Sampling rate               : 48.0 kHz
    Frame rate                  : 93.750 FPS (512 SPF)
    Bit depth                   : 24 bits
    Compression mode            : Lossless
    Stream size                 : 2.53 GiB (13%)
    Title                       : DTS-HD_5.1_Bluray_Eng
    Language                    : English
    Default                     : No
    Forced                      : No

    Text #1
    ID                          : 4
    Format                      : UTF-8
    Codec ID                    : S_TEXT/UTF8
    Codec ID/Info               : UTF-8 Plain Text
    Duration                    : 1 h 30 min
    Bit rate                    : 0 b/s
    Count of elements           : 12
    Stream size                 : 379 Bytes (0%)
    Title                       : Sub_Forzados
    Language                    : Spanish
    Default                     : Yes
    Forced                      : Yes

    Text #2
    ID                          : 5
    Format                      : UTF-8
    Codec ID                    : S_TEXT/UTF8
    Codec ID/Info               : UTF-8 Plain Text
    Duration                    : 1 h 27 min
    Bit rate                    : 36 b/s
    Count of elements           : 825
    Stream size                 : 23.7 KiB (0%)
    Title                       : Sub_Esp
    Language                    : Spanish
    Default                     : No
    Forced                      : No

    Text #3
    ID                          : 6
    Format                      : PGS
    Muxing mode                 : zlib
    Codec ID                    : S_HDMV/PGS
    Codec ID/Info               : Picture based subtitle format used on BDs/HD-DVDs
    Duration                    : 1 h 33 min
    Bit rate                    : 23.4 kb/s
    Count of elements           : 1920
    Stream size                 : 15.6 MiB (0%)
    Title                       : Sub_Eng [PGS]
    Language                    : English
    Default                     : No
    Forced                      : No

    Menu
    00:00:00.000                : en:00:00:00.000
    00:10:15.907                : en:00:10:15.907
    00:19:49.772                : en:00:19:49.772
    00:29:58.547                : en:00:29:58.547
    00:39:10.265                : en:00:39:10.265
    00:50:36.784                : en:00:50:36.784
    00:59:36.990                : en:00:59:36.990
    01:10:52.957                : en:01:10:52.957
    01:18:58.567                : en:01:18:58.567
    01:28:37.354                : en:01:28:37.354

  • Peso: 20.0 GiB

Sinopsis

Descargar La Invasión (2019) REMUX 1080p Latino. Tres amigos que filman una serie online, descubren que los vecinos de su pueblo están siendo asesinados y reemplazados por criaturas que son perfectas copias de sus víctimas.

Ficha técnica

Video trailer de la película

Enlaces de descarga

Rip de Bluray

Descargar La Invasión (2019) REMUX 1080p Latino




Aportes de DPeliculasHDmega la pass es:dpeliculashdmega.org Aportes de CinemaniaHD la pass es:cinemaniahdd.com
Guardado en : Ciencia ficción , Remux , Suspenso , Terror

Películas relacionadas

  • Inside (2023) PLACEBO Full HD 1080p Latino

    Inside (2023) PLACEBO Full HD 1080p Latino

    2023
    Inside (2023) PLACEBO Full HD 1080p Latino

    1h 45m 2023

    Descargar Inside (2023) PLACEBO Full HD 1080p Latino. Un ladrón de arte de alto nivel, Nemo (Willem...

    Director: Vasilis Katsoupis

    Género: Drama

    Actores: Youl Samare

  • Inside (2023) HD 1080p Latino

    Inside (2023) HD 1080p Latino

    2023
    Inside (2023) HD 1080p Latino

    1h 45m 2023

    Descargar Inside (2023) HD 1080p Latino. Un ladrón de arte de alto nivel, Nemo (Willem Dafoe), queda...

    Director: Vasilis Katsoupis

    Género: Drama

    Actores: Youl Samare

  • Inside (2023) REMUX 1080p Latino

    Inside (2023) REMUX 1080p Latino

    2023
    Inside (2023) REMUX 1080p Latino

    1h 45m 2023

    Descargar Inside (2023) REMUX 1080p Latino. Un ladrón de arte de alto nivel, Nemo (Willem Dafoe), queda...

    Director: Vasilis Katsoupis

    Género: Drama

    Actores: Youl Samare

  • John Wick Chapter 4 (2023) HD 1080p Latino

    John Wick Chapter 4 (2023) HD 1080p Latino

    2023
    John Wick Chapter 4 (2023) HD 1080p Latino

    2h 50m 2023

    Descargar John Wick Chapter 4 (2023) HD 1080p Latino. John Wick descubre un camino para derrotar a la...

    Director: Scott Rogers

    Género: Acción

    Actores: Yoshinori Tashiro

  • Sustitutos (2023) HD 1080p Latino

    Sustitutos (2023) HD 1080p Latino

    2023
    Sustitutos (2023) HD 1080p Latino

    1h 35m 2023

    Descargar Sustitutos (2023) HD 1080p Latino. Faye intenta reemplazar a su esposo recién fallecido, Evan,...

    Director: April Mullen

    Género: Ciencia ficción

    Actores: Zarrin Darnell-Martin

descargar La Invasión (2019) REMUX 1080p Latino Full 1080p 1080p gratis, La Invasión (2019) REMUX 1080p Latino Full 1080p mega 1 link, La Invasión (2019) REMUX 1080p Latino Full 1080p pelicula completa, descargar La Invasión (2019) REMUX 1080p Latino Full 1080p gratis en mega.

La Invasión (2019) REMUX 1080p Latino pelicula full hd, La Invasión (2019) REMUX 1080p Latino mega latino, La Invasión (2019) REMUX 1080p Latino 4k latino, La Invasión (2019) REMUX 1080p Latino pelicula completa, La Invasión (2019) REMUX 1080p Latino descargar gratis, descargar La Invasión (2019) REMUX 1080p Latino pelicula latino, La Invasión (2019) REMUX 1080p Latino 1 link mega, La Invasión (2019) REMUX 1080p Latino 1 link google drive, La Invasión (2019) REMUX 1080p Latino hd 1080p latino.
Comentarios 0