×

¿Problemas para descargar con Mozilla, EDGE? Deshabilita la opción "Abrir vinculos en una pestaña nueva" tal como lo muestra ésta imagen.

Assault on Precinct 13 (2005) REMUX 1080p Latino – CMHDD

132 vistas

Información de Assault on Precinct 13 (2005) REMUX 1080p Latino – CMHDD

Datos de la película

  • Calidad: Full 1080p
  • Audio: Español Latino DTS 5.1 BLURAY - Ingles DTS 5.1 BLURAY
  • Subtitulos: Español Latino PGS
  • Resolución: 1920x1080p
  • Formato: MKV
  • Codec: H.264
  • Encoder: Dracarys
  • Mediainfo: Clic para Mostrar Datos Ver
  • Format                      : Matroska
    Format version              : Version 4
    File size                   : 25.2 GiB
    Duration                    : 1 h 48 min
    Overall bit rate mode       : Variable
    Overall bit rate            : 33.1 Mb/s
    Movie name                  : Assault on Precinct 13 (2005) REMUX 1080p Latino - CMHDD
    Encoded date                : UTC 2021-09-12 00:24:34
    Writing application         : mkvmerge v17.0.0 ('Be Ur Friend') 64-bit
    Writing library             : libebml v1.3.5 + libmatroska v1.4.8

    Video
    ID                          : 1
    Format                      : VC-1
    Format profile              : Advanced@L3
    Codec ID                    : V_MS/VFW/FOURCC / WVC1
    Codec ID/Hint               : Microsoft
    Duration                    : 1 h 48 min
    Bit rate                    : 28.4 Mb/s
    Width                       : 1 920 pixels
    Height                      : 1 080 pixels
    Display aspect ratio        : 16:9
    Frame rate mode             : Constant
    Frame rate                  : 23.976 (24000/1001) FPS
    Color space                 : YUV
    Chroma subsampling          : 4:2:0
    Bit depth                   : 8 bits
    Scan type                   : Progressive
    Compression mode            : Lossy
    Bits/(Pixel*Frame)          : 0.571
    Stream size                 : 21.6 GiB (86%)
    Default                     : Yes
    Forced                      : No

    Audio #1
    ID                          : 2
    Format                      : DTS XLL
    Format/Info                 : Digital Theater Systems
    Commercial name             : DTS-HD Master Audio
    Codec ID                    : A_DTS
    Duration                    : 1 h 48 min
    Bit rate mode               : Variable
    Bit rate                    : 3 937 kb/s
    Channel(s)                  : 6 channels
    Channel layout              : C L R Ls Rs LFE
    Sampling rate               : 48.0 kHz
    Frame rate                  : 93.750 FPS (512 SPF)
    Bit depth                   : 24 bits
    Compression mode            : Lossless
    Stream size                 : 2.99 GiB (12%)
    Language                    : English
    Default                     : No
    Forced                      : No

    Audio #2
    ID                          : 3
    Format                      : DTS
    Format/Info                 : Digital Theater Systems
    Codec ID                    : A_DTS
    Duration                    : 1 h 48 min
    Bit rate mode               : Constant
    Bit rate                    : 768 kb/s
    Channel(s)                  : 6 channels
    Channel layout              : C L R Ls Rs LFE
    Sampling rate               : 48.0 kHz
    Frame rate                  : 93.750 FPS (512 SPF)
    Bit depth                   : 24 bits
    Compression mode            : Lossy
    Stream size                 : 598 MiB (2%)
    Language                    : Spanish
    Default                     : Yes
    Forced                      : No

    Text #1
    ID                          : 4
    Format                      : PGS
    Muxing mode                 : zlib
    Codec ID                    : S_HDMV/PGS
    Codec ID/Info               : Picture based subtitle format used on BDs/HD-DVDs
    Duration                    : 1 h 41 min
    Bit rate                    : 36.4 kb/s
    Count of elements           : 2320
    Stream size                 : 26.4 MiB (0%)
    Language                    : Spanish
    Default                     : Yes
    Forced                      : No

    Text #2
    ID                          : 5
    Format                      : PGS
    Muxing mode                 : zlib
    Codec ID                    : S_HDMV/PGS
    Codec ID/Info               : Picture based subtitle format used on BDs/HD-DVDs
    Duration                    : 14 min 33 s
    Bit rate                    : 609 b/s
    Count of elements           : 10
    Stream size                 : 64.9 KiB (0%)
    Language                    : Spanish
    Default                     : No
    Forced                      : No

    Menu
    00:00:00.000                : en:Chapter 1
    00:05:04.721                : en:Chapter 2
    00:09:59.098                : en:Chapter 3
    00:14:21.610                : en:Chapter 4
    00:20:37.653                : en:Chapter 5
    00:24:33.388                : en:Chapter 6
    00:29:48.286                : en:Chapter 7
    00:34:06.377                : en:Chapter 8
    00:41:42.208                : en:Chapter 9
    00:48:28.530                : en:Chapter 10
    00:53:43.303                : en:Chapter 11
    00:58:46.606                : en:Chapter 12
    01:04:12.932                : en:Chapter 13
    01:09:54.648                : en:Chapter 14
    01:17:01.158                : en:Chapter 15
    01:20:57.519                : en:Chapter 16
    01:24:52.712                : en:Chapter 17
    01:29:19.937                : en:Chapter 18
    01:34:33.834                : en:Chapter 19
    01:42:26.598                : en:Chapter 20

  • Peso: 25.2 GiB

Sinopsis

Quedan pocas horas para que el año toque a su fin y en la comisaría del distrito 13, sólo queda un puñado de policías encabezado por el sargento Jake Roenick (Ethan Hawke), un buen oficial que no consigue olvidar una operación fallida que tuvo lugar la primavera pasada. Pero es que, además, ese mismo día por la mañana, un policía de paisano había intentado arrestar al mafioso Marion Bishop (Laurence Fishburne), el cual consiguió matar al agente antes de ser capturado por la Unidad contra el Crimen Organizado encabezada por Marcus Duvall (Gabriel Byrne). Bishop es trasladado en autobús a la cárcel, pero la tormenta de nieve arrecia y el autobús, ante la imposibilidad de llegar a la cárcel de máxima seguridad, se dirige provisionalmente a la comisaría del distrito 13.

Ficha técnica

Video trailer de la película

Enlaces de descarga

Rip de Bluray

Descargar Assault on Precinct 13 (2005) REMUX 1080p Latino – CMHDD


Aportes de DPeliculasHDmega la pass es:dpeliculashdmega.org Aportes de CinemaniaHD la pass es:cinemaniahdd.com
Guardado en : Acción , Crimen , Drama , Suspenso

Películas relacionadas

  • El Cuartel Secreto (2022) WEB-DL 4K UHD HDR Latino

    El Cuartel Secreto (2022) WEB-DL 4K UHD HDR Latino

    2022
    El Cuartel Secreto (2022) WEB-DL 4K UHD HDR Latino

    1h 44m 2022

    Descargar El Cuartel Secreto (2022) WEB-DL 4K UHD HDR Latino. Mientras pasan el rato después de la escuela,...

    Director: Henry Joost

    Género: 4K HDR

    Actores: Zeb Slone

  • El Cuartel Secreto (2022) WEB-DL 1080p Latino

    El Cuartel Secreto (2022) WEB-DL 1080p Latino

    2022
    El Cuartel Secreto (2022) WEB-DL 1080p Latino

    1h 44m 2022

    Descargar El Cuartel Secreto (2022) WEB-DL 1080p Latino. Mientras pasan el rato después de la escuela,...

    Director: Henry Joost

    Género: Acción

    Actores: Zeb Slone

  • Men in Black (1997) REMUX 4K HDR Latino – CMHDD

    Men in Black (1997) REMUX 4K HDR Latino – CMHDD

    1997
    Men in Black (1997) REMUX 4K HDR Latino – CMHDD

    1h 34m 1997

    Durante muchos años los extraterrestres han vivido en la Tierra, mezclados con los humanos, sin que...

    Director: Tyrone S. Walker

    Género: Acción

    Actores: Willie C. Carpenter

  • Blonde (2022) NF WEB-DL 1080p Latino

    Blonde (2022) NF WEB-DL 1080p Latino

    2022
    Blonde (2022) NF WEB-DL 1080p Latino

    2h 46m 2022

    Descargar Blonde (2022) NF WEB-DL 1080p Latino. Basada en el bestseller de la cinco veces finalista al...

    Director: Kristin Bree Calabrese

    Género: Drama

    Actores: Xavier Samuel

  • La Máquina infernal (2022) WEB-DL 1080p Latino

    La Máquina infernal (2022) WEB-DL 1080p Latino

    2022
    La Máquina infernal (2022) WEB-DL 1080p Latino

    1h 47m 2022

    Descargar La Máquina infernal (2022) WEB-DL 1080p Latino. Un fan obsesivo saca de su escondite al solitario...

    Director: Andrew Hunt

    Género: Suspenso

    Actores: Rocco Salata

descargar Assault on Precinct 13 (2005) REMUX 1080p Latino – CMHDD Full 1080p 1080p gratis, Assault on Precinct 13 (2005) REMUX 1080p Latino – CMHDD Full 1080p mega 1 link, Assault on Precinct 13 (2005) REMUX 1080p Latino – CMHDD Full 1080p pelicula completa, descargar Assault on Precinct 13 (2005) REMUX 1080p Latino – CMHDD Full 1080p gratis en mega.

Assault on Precinct 13 (2005) REMUX 1080p Latino – CMHDD pelicula full hd, Assault on Precinct 13 (2005) REMUX 1080p Latino – CMHDD mega latino, Assault on Precinct 13 (2005) REMUX 1080p Latino – CMHDD 4k latino, Assault on Precinct 13 (2005) REMUX 1080p Latino – CMHDD pelicula completa, Assault on Precinct 13 (2005) REMUX 1080p Latino – CMHDD descargar gratis, descargar Assault on Precinct 13 (2005) REMUX 1080p Latino – CMHDD pelicula latino, Assault on Precinct 13 (2005) REMUX 1080p Latino – CMHDD 1 link mega, Assault on Precinct 13 (2005) REMUX 1080p Latino – CMHDD 1 link google drive, Assault on Precinct 13 (2005) REMUX 1080p Latino – CMHDD hd 1080p latino.