×

¿Problemas para descargar con Mozilla, EDGE? Deshabilita la opción "Abrir vinculos en una pestaña nueva" tal como lo muestra ésta imagen.

Assassin’s Creed (2016) REMUX 1080p Latino

792 vistas

Información de Assassin’s Creed (2016) REMUX 1080p Latino

assassins creed 55351 poster

Datos de la película

  • Calidad: Full 1080p
  • Audio: Español Latino AC3 5.1 BLURAY - DTS-HD Master 7.1 BLURAY
  • Subtitulos: Español Latino SRT- FORZADOS SRT
  • Resolución: 1920x1080p
  • Formato: MKV
  • Codec: H.264
  • Encoder: Dracarys
  • Mediainfo: Clic para Mostrar Datos Ver
  • Format                      : Matroska
    Format version              : Version 4
    File size                   : 24.5 GiB
    Duration                    : 1 h 55 min
    Overall bit rate mode       : Variable
    Overall bit rate            : 30.3 Mb/s
    Movie name                  : CinemaniaHDD.net
    Encoded date                : UTC 2019-07-19 04:03:00
    Writing application         : mkvmerge v35.0.0 ('All The Love In The World') 64-bit
    Writing library             : libebml v1.3.9 + libmatroska v1.5.2

    Video
    ID                          : 1
    Format                      : AVC
    Format/Info                 : Advanced Video Codec
    Format profile              : High@L4.1
    Format settings             : CABAC / 4 Ref Frames
    Format settings, CABAC      : Yes
    Format settings, ReFrames   : 4 frames
    Codec ID                    : V_MPEG4/ISO/AVC
    Duration                    : 1 h 55 min
    Bit rate mode               : Variable
    Bit rate                    : 24.5 Mb/s
    Maximum bit rate            : 33.0 Mb/s
    Width                       : 1 920 pixels
    Height                      : 1 080 pixels
    Display aspect ratio        : 16:9
    Frame rate mode             : Constant
    Frame rate                  : 23.976 (24000/1001) FPS
    Color space                 : YUV
    Chroma subsampling          : 4:2:0
    Bit depth                   : 8 bits
    Scan type                   : Progressive
    Bits/(Pixel*Frame)          : 0.493
    Stream size                 : 19.8 GiB (81%)
    Language                    : English
    Default                     : Yes
    Forced                      : No

    Audio #1
    ID                          : 2
    Format                      : DTS XLL
    Format/Info                 : Digital Theater Systems
    Commercial name             : DTS-HD Master Audio
    Codec ID                    : A_DTS
    Duration                    : 1 h 55 min
    Bit rate mode               : Variable
    Bit rate                    : 5 355 kb/s
    Channel(s)                  : 8 channels
    Channel layout              : C L R LFE Lb Rb Lss Rss
    Sampling rate               : 48.0 kHz
    Frame rate                  : 93.750 FPS (512 SPF)
    Bit depth                   : 24 bits
    Compression mode            : Lossless
    Stream size                 : 4.32 GiB (18%)
    Language                    : English
    Default                     : No
    Forced                      : No

    Audio #2
    ID                          : 3
    Format                      : AC-3
    Format/Info                 : Audio Coding 3
    Commercial name             : Dolby Digital
    Codec ID                    : A_AC3
    Duration                    : 1 h 55 min
    Bit rate mode               : Constant
    Bit rate                    : 448 kb/s
    Channel(s)                  : 6 channels
    Channel layout              : L R C LFE Ls Rs
    Sampling rate               : 48.0 kHz
    Frame rate                  : 31.250 FPS (1536 SPF)
    Bit depth                   : 16 bits
    Compression mode            : Lossy
    Stream size                 : 370 MiB (1%)
    Language                    : Spanish
    Service kind                : Complete Main
    Default                     : Yes
    Forced                      : No

    Text #1
    ID                          : 4
    Format                      : PGS
    Muxing mode                 : zlib
    Codec ID                    : S_HDMV/PGS
    Codec ID/Info               : Picture based subtitle format used on BDs/HD-DVDs
    Duration                    : 1 h 53 min
    Bit rate                    : 11.8 kb/s
    Count of elements           : 1136
    Stream size                 : 9.59 MiB (0%)
    Language                    : Spanish
    Default                     : No
    Forced                      : No

    Text #2
    ID                          : 5
    Format                      : UTF-8
    Codec ID                    : S_TEXT/UTF8
    Codec ID/Info               : UTF-8 Plain Text
    Duration                    : 1 h 53 min
    Bit rate                    : 19 b/s
    Count of elements           : 568
    Stream size                 : 15.9 KiB (0%)
    Language                    : Spanish
    Default                     : No
    Forced                      : No

    Text #3
    ID                          : 6
    Format                      : UTF-8
    Codec ID                    : S_TEXT/UTF8
    Codec ID/Info               : UTF-8 Plain Text
    Duration                    : 1 h 53 min
    Bit rate                    : 0 b/s
    Count of elements           : 13
    Stream size                 : 589 Bytes (0%)
    Language                    : Spanish
    Default                     : Yes
    Forced                      : Yes

  • Peso: 24.5 GiB

Sinopsis

Gracias a una revolucionaria tecnología que desbloquea los recuerdos genéticos, Callum Lynch (Michael Fassbender) vive las aventuras de su ancestro, Aguilar, en la España del siglo XV. Callum descubre que es el descendiente de una misteriosa sociedad secreta, los Asesinos, y que posee increíbles conocimientos y habilidades que le permitirán enfrentarse a la poderosa y opresora organización de los Templarios en el presente.

Ficha técnica

Video trailer de la película

Enlaces de descarga

Rip de Bluray

Descargar Assassin’s Creed (2016) REMUX 1080p Latino




Aportes de DPeliculasHDmega la pass es:dpeliculashdmega.org Aportes de CinemaniaHD la pass es:cinemaniahdd.com Aportes recientes:cinemaniahdd.net
Guardado en : Acción , Aventura , Ciencia ficción , Remux

Películas relacionadas

descargar Assassin’s Creed (2016) REMUX 1080p Latino Full 1080p 1080p gratis, Assassin’s Creed (2016) REMUX 1080p Latino Full 1080p mega 1 link, Assassin’s Creed (2016) REMUX 1080p Latino Full 1080p pelicula completa, descargar Assassin’s Creed (2016) REMUX 1080p Latino Full 1080p gratis en mega.

Assassin’s Creed (2016) REMUX 1080p Latino pelicula full hd, Assassin’s Creed (2016) REMUX 1080p Latino mega latino, Assassin’s Creed (2016) REMUX 1080p Latino 4k latino, Assassin’s Creed (2016) REMUX 1080p Latino pelicula completa, Assassin’s Creed (2016) REMUX 1080p Latino descargar gratis, descargar Assassin’s Creed (2016) REMUX 1080p Latino pelicula latino, Assassin’s Creed (2016) REMUX 1080p Latino 1 link mega, Assassin’s Creed (2016) REMUX 1080p Latino 1 link google drive, Assassin’s Creed (2016) REMUX 1080p Latino hd 1080p latino.
Comentarios 0