×

¿Problemas para descargar con Mozilla, EDGE? Deshabilita la opción "Abrir vinculos en una pestaña nueva" tal como lo muestra ésta imagen.

Assassin Club (2023) HD 1080p Latino

195 vistas

Información de Assassin Club (2023) HD 1080p Latino

Datos de la película

  • Calidad: 1080p
  • Audio: Español Latino AC3 2.0 WEB-DL - Ingles AC3 5.1 BLURAY
  • Subtitulos: Español Latino SRT- FORZADOS SRT
  • Resolución: 1920x804p
  • Formato: MKV
  • Codec: H.264
  • Encoder: Melkor
  • Mediainfo: Clic para Mostrar Datos Ver
  • Assassin Club (2023) HD 1080p Latino.mkv
    Format                      : Matroska
    Format version              : Version 4
    File size                   : 3.23 GiB
    Duration                    : 1 h 51 min
    Overall bit rate            : 4 158 kb/s
    Movie name                  : Assassin Club (2023) CinemaniaHDD.Net
    Encoded date                : UTC 2023-06-07 06:22:54
    Writing application         : mkvmerge v56.1.0 ('My Friend') 64-bit
    Writing library             : libebml v1.4.2 + libmatroska v1.6.4
    Attachments                 : CINEMANIAHD.png
    Site                        : CinemaniaHDD.Net
    Uploader                    : Melkor

    Video
    ID                          : 1
    Format                      : AVC
    Format/Info                 : Advanced Video Codec
    Format profile              : High@L4.1
    Format settings             : CABAC / 5 Ref Frames
    Format settings, CABAC      : Yes
    Format settings, Reference  : 5 frames
    Codec ID                    : V_MPEG4/ISO/AVC
    Duration                    : 1 h 51 min
    Bit rate                    : 3 500 kb/s
    Width                       : 1 920 pixels
    Height                      : 804 pixels
    Display aspect ratio        : 2.40:1
    Frame rate mode             : Constant
    Frame rate                  : 23.976 (24000/1001) FPS
    Color space                 : YUV
    Chroma subsampling          : 4:2:0
    Bit depth                   : 8 bits
    Scan type                   : Progressive
    Bits/(Pixel*Frame)          : 0.095
    Stream size                 : 2.68 GiB (83%)
    Title                       : HD1080p [CinemaniaHDD]
    Writing library             : x264 core 163 r3059 b684ebe0
    Encoding settings           : cabac=1 / ref=5 / deblock=1:-1:-1 / analyse=0x3:0x133 / me=umh / subme=9 / psy=1 / psy_rd=1.00:0.15 / mixed_ref=1 / me_range=16 / chroma_me=1 / trellis=2 / 8x8dct=1 / cqm=0 / deadzone=21,11 / fast_pskip=1 / chroma_qp_offset=-3 / threads=24 / lookahead_threads=2 / sliced_threads=0 / nr=0 / decimate=1 / interlaced=0 / bluray_compat=0 / constrained_intra=0 / bframes=3 / b_pyramid=2 / b_adapt=2 / b_bias=0 / direct=3 / weightb=1 / open_gop=0 / weightp=2 / keyint=240 / keyint_min=24 / scenecut=40 / intra_refresh=0 / rc_lookahead=60 / rc=abr / mbtree=1 / bitrate=3500 / ratetol=1.0 / qcomp=0.60 / qpmin=0 / qpmax=69 / qpstep=4 / vbv_maxrate=62500 / vbv_bufsize=78125 / nal_hrd=none / filler=0 / ip_ratio=1.40 / aq=1:1.00
    Default                     : Yes
    Forced                      : Yes
    Color range                 : Limited
    Color primaries             : BT.709
    Transfer characteristics    : BT.709
    Matrix coefficients         : BT.709

    Audio #1
    ID                          : 2
    Format                      : AC-3
    Format/Info                 : Audio Coding 3
    Commercial name             : Dolby Digital
    Codec ID                    : A_AC3
    Duration                    : 1 h 51 min
    Bit rate mode               : Constant
    Bit rate                    : 256 kb/s
    Channel(s)                  : 2 channels
    Channel layout              : L R
    Sampling rate               : 48.0 kHz
    Frame rate                  : 31.250 FPS (1536 SPF)
    Compression mode            : Lossy
    Delay relative to video     : -5 ms
    Stream size                 : 204 MiB (6%)
    Title                       : Español Latino [CinemaniaHDD]
    Language                    : Spanish
    Service kind                : Complete Main
    Default                     : Yes
    Forced                      : Yes

    Audio #2
    ID                          : 3
    Format                      : AC-3
    Format/Info                 : Audio Coding 3
    Commercial name             : Dolby Digital
    Codec ID                    : A_AC3
    Duration                    : 1 h 51 min
    Bit rate mode               : Constant
    Bit rate                    : 448 kb/s
    Channel(s)                  : 6 channels
    Channel layout              : L R C LFE Ls Rs
    Sampling rate               : 48.0 kHz
    Frame rate                  : 31.250 FPS (1536 SPF)
    Compression mode            : Lossy
    Delay relative to video     : -5 ms
    Stream size                 : 357 MiB (11%)
    Title                       : Ingles [CinemaniaHDD]
    Language                    : English
    Service kind                : Complete Main
    Default                     : No
    Forced                      : No

    Text #1
    ID                          : 4
    Format                      : UTF-8
    Codec ID                    : S_TEXT/UTF8
    Codec ID/Info               : UTF-8 Plain Text
    Duration                    : 57 min 50 s
    Bit rate                    : 0 b/s
    Count of elements           : 11
    Stream size                 : 311 Bytes (0%)
    Title                       : Forzados-SRT [CinemaniaHDD]
    Language                    : Spanish
    Default                     : Yes
    Forced                      : Yes

    Text #2
    ID                          : 5
    Format                      : UTF-8
    Codec ID                    : S_TEXT/UTF8
    Codec ID/Info               : UTF-8 Plain Text
    Duration                    : 1 h 50 min
    Bit rate                    : 44 b/s
    Count of elements           : 1117
    Stream size                 : 36.4 KiB (0%)
    Title                       : Español-SRT [CinemaniaHDD]
    Language                    : Spanish
    Default                     : No
    Forced                      : No

    Menu
    00:00:00.000                : Chapter 01
    00:08:48.945                : Chapter 02
    00:17:45.898                : Chapter 03
    00:26:01.226                : Chapter 04
    00:33:41.019                : Chapter 05
    00:39:57.228                : Chapter 06
    00:48:50.928                : Chapter 07
    00:59:42.579                : Chapter 08
    01:07:05.688                : Chapter 09
    01:15:07.836                : Chapter 10
    01:27:03.384                : Chapter 11
    01:35:45.740                : Chapter 12
    01:42:56.170                : Chapter 13
    01:46:57.411                : Chapter 14

  • Peso: 3.23 GiB

Sinopsis

Descargar Assassin Club (2023) HD 1080p Latino. Morgan es un asesino a sueldo que está a punto de retirarse cuando le llega un nuevo encargo. Será uno de los siete asesinos a sueldo que deberán luchar entre sí, con una recompensa de 1 millón de dólares por objetivo eliminado. Mientras los otros asesinos lo persiguen, él une fuerzas con Falk, otro de los sicarios, para tratar de averiguar quién los contrató y por qué.

Ficha técnica

Video trailer de la película

Enlaces de descarga

Rip de Bluray

Descargar Assassin Club (2023) HD 1080p Latino




Aportes de DPeliculasHDmega la pass es:dpeliculashdmega.org Aportes de CinemaniaHD la pass es:cinemaniahdd.com Aportes recientes:cinemaniahdd.net
Guardado en : Acción , HD 1080p , Misterio , Suspenso

Películas relacionadas

  • Milagros Inesperados (1999) 1080p Latino-CMHDD

    Milagros Inesperados (1999) 1080p Latino-CMHDD

    1999
    Milagros Inesperados (1999) 1080p Latino-CMHDD

    3h 9m 1999

    Descargar Milagros Inesperados (1999) 1080p Latino-CMHDD. En el sur de los Estados Unidos, en plena Depresión,...

    Director: Susan Malerstein

    Género: Crimen

    Actores: William Sadler

  • Wanted Man (2024) HD 1080p Latino

    Wanted Man (2024) HD 1080p Latino

    2024
    Wanted Man (2024) HD 1080p Latino

    1h 25m 2024

    Descargar Wanted Man (2024) HD 1080p Latino. Sigue a un oficial de policía que debe recuperar a un testigo...

    Director: Kevin Leslie

    Género: Acción

    Actores: Xzavier Estrada

  • Wanted Man (2024) PLACEBO Full HD 1080p Latino

    Wanted Man (2024) PLACEBO Full HD 1080p Latino

    2024
    Wanted Man (2024) PLACEBO Full HD 1080p Latino

    1h 25m 2024

    Descargar Wanted Man (2024) PLACEBO Full HD 1080p Latino. Sigue a un oficial de policía que debe recuperar...

    Director: Kevin Leslie

    Género: Acción

    Actores: Xzavier Estrada

  • Wanted Man (2024) REMUX 1080p Latino

    Wanted Man (2024) REMUX 1080p Latino

    2024
    Wanted Man (2024) REMUX 1080p Latino

    1h 25m 2024

    Descargar Wanted Man (2024) REMUX 1080p Latino. Sigue a un oficial de policía que debe recuperar a un...

    Director: Kevin Leslie

    Género: Acción

    Actores: Xzavier Estrada

descargar Assassin Club (2023) HD 1080p Latino 1080p 1080p gratis, Assassin Club (2023) HD 1080p Latino 1080p mega 1 link, Assassin Club (2023) HD 1080p Latino 1080p pelicula completa, descargar Assassin Club (2023) HD 1080p Latino 1080p gratis en mega.

Assassin Club (2023) HD 1080p Latino pelicula full hd, Assassin Club (2023) HD 1080p Latino mega latino, Assassin Club (2023) HD 1080p Latino 4k latino, Assassin Club (2023) HD 1080p Latino pelicula completa, Assassin Club (2023) HD 1080p Latino descargar gratis, descargar Assassin Club (2023) HD 1080p Latino pelicula latino, Assassin Club (2023) HD 1080p Latino 1 link mega, Assassin Club (2023) HD 1080p Latino 1 link google drive, Assassin Club (2023) HD 1080p Latino hd 1080p latino.
Comentarios 0