Ash Vs Evil Dead (2018) Tercera Temporada Full 1080p Latino

467 vistas
1 estrella2 estrellas3 estrellas4 estrellas5 estrellas (2 votos, promedio: 3,00 de 5)
Cargando…

Información de Ash Vs Evil Dead (2018) Tercera Temporada Full 1080p Latino

Datos de la película

  • Calidad: Full 1080p
  • Audio: Español Latino AC3 2.0 BLURAY - Ingles AC3 5.1 BLURAY
  • Subtitulos: Español Latino PGS - Ingles PGS
  • Resolución: 1920x1080p
  • Formato: MKV
  • Codec: H.264
  • Encoder: Dracarys
  • Mediainfo: Clic para Mostrar Datos Ver
  • Format                                   : Matroska
    Format version                           : Version 4 / Version 2
    File size                                : 1.21 GiB
    Duration                                 : 27 min 39 s
    Overall bit rate                         : 6 273 kb/s
    Movie name                               : CinemaniaHDD.net
    Encoded date                             : UTC 2018-11-10 21:02:23 / UTC 2018-11-03T04:33:08Z
    Writing application                      : mkvmerge v15.0.0 ('Duel with the Devil') 64-bit
    Writing library                          : libebml v1.3.5 + libmatroska v1.4.5 / Lavf57.7.2

    Video
    ID                                       : 1
    Format                                   : AVC
    Format/Info                              : Advanced Video Codec
    Format profile                           : High@L4.1
    Format settings                          : CABAC / 4 Ref Frames
    Format settings, CABAC                   : Yes
    Format settings, RefFrames               : 4 frames
    Codec ID                                 : V_MPEG4/ISO/AVC
    Duration                                 : 27 min 39 s
    Bit rate                                 : 5 316 kb/s
    Width                                    : 1 920 pixels
    Height                                   : 1 080 pixels
    Display aspect ratio                     : 16:9
    Frame rate mode                          : Constant
    Frame rate                               : 23.976 (24000/1001) FPS
    Color space                              : YUV
    Chroma subsampling                       : 4:2:0
    Bit depth                                : 8 bits
    Scan type                                : Progressive
    Bits/(Pixel*Frame)                       : 0.107
    Stream size                              : 1.03 GiB (85%)
    Writing library                          : x264 core 148 r2708 86b7198
    Encoding settings                        : cabac=1 / ref=4 / deblock=1:0:0 / analyse=0x3:0x133 / me=esa / subme=10 / psy=1 / psy_rd=1.00:0.00 / mixed_ref=1 / me_range=24 / chroma_me=1 / trellis=2 / 8x8dct=1 / cqm=0 / deadzone=21,11 / fast_pskip=1 / chroma_qp_offset=-2 / threads=34 / lookahead_threads=5 / sliced_threads=0 / nr=0 / decimate=1 / interlaced=0 / bluray_compat=0 / constrained_intra=0 / bframes=8 / b_pyramid=2 / b_adapt=2 / b_bias=0 / direct=3 / weightb=1 / open_gop=0 / weightp=2 / keyint=240 / keyint_min=24 / scenecut=40 / intra_refresh=0 / rc_lookahead=60 / rc=crf / mbtree=1 / crf=20.0 / qcomp=0.60 / qpmin=0 / qpmax=69 / qpstep=4 / vbv_maxrate=62500 / vbv_bufsize=78125 / crf_max=0.0 / nal_hrd=none / filler=0 / ip_ratio=1.40 / aq=1:1.00
    Language                                 : English
    Default                                  : Yes
    Forced                                   : No
    Color range                              : Limited
    Color primaries                          : BT.709
    Transfer characteristics                 : BT.709
    Matrix coefficients                      : BT.709
    Statistics Tags Issue                    : mkvmerge v15.0.0 ('Duel with the Devil') 64-bit 2018-11-10 21:02:23 / mkvmerge v15.0.0 ('Duel with the Devil') 64-bit 2018-11-10 21:02:23 / UTC 2018-11-03T04:33:08Z
    FromStats_BitRate                        : 5406732
    FromStats_Duration                       : 00:27:39.658000000
    FromStats_FrameCount                     : 39792
    FromStats_StreamSize                     : 1121665799

    Audio #1
    ID                                       : 2
    Format                                   : AC-3
    Format/Info                              : Audio Coding 3
    Mode                                     : Dolby Digital
    Format settings, Endianness              : Big
    Codec ID                                 : A_AC3
    Duration                                 : 27 min 39 s
    Bit rate mode                            : Constant
    Bit rate                                 : 192 kb/s
    Channel(s)                               : 2 channels
    Channel positions                        : Front: L R
    Sampling rate                            : 48.0 kHz
    Frame rate                               : 31.250 FPS (1536 SPF)
    Bit depth                                : 16 bits
    Compression mode                         : Lossy
    Delay relative to video                  : 64 ms
    Stream size                              : 38.0 MiB (3%)
    Language                                 : Spanish
    Service kind                             : Complete Main
    Default                                  : Yes
    Forced                                   : No
    Statistics Tags Issue                    : mkvmerge v15.0.0 ('Duel with the Devil') 64-bit 2018-11-10 21:02:23 / mkvmerge v15.0.0 ('Duel with the Devil') 64-bit 2018-11-10 21:02:23 / UTC 2018-11-03T04:33:08Z
    FromStats_BitRate                        : 192000
    FromStats_Duration                       : 00:27:39.648000000
    FromStats_FrameCount                     : 51864
    FromStats_StreamSize                     : 39831552

    Audio #2
    ID                                       : 3
    Format                                   : AC-3
    Format/Info                              : Audio Coding 3
    Format settings, Endianness              : Big
    Codec ID                                 : A_AC3
    Duration                                 : 27 min 39 s
    Bit rate mode                            : Constant
    Bit rate                                 : 640 kb/s
    Channel(s)                               : 6 channels
    Channel positions                        : Front: L C R, Side: L R, LFE
    Sampling rate                            : 48.0 kHz
    Frame rate                               : 31.250 FPS (1536 SPF)
    Bit depth                                : 16 bits
    Compression mode                         : Lossy
    Delay relative to video                  : 64 ms
    Stream size                              : 127 MiB (10%)
    Language                                 : English
    Service kind                             : Complete Main
    Default                                  : No
    Forced                                   : No
    Statistics Tags Issue                    : mkvmerge v15.0.0 ('Duel with the Devil') 64-bit 2018-11-10 21:02:23 / mkvmerge v15.0.0 ('Duel with the Devil') 64-bit 2018-11-10 21:02:23 / UTC 2018-11-03T04:33:08Z
    FromStats_BitRate                        : 640000
    FromStats_Duration                       : 00:27:39.648000000
    FromStats_FrameCount                     : 51864
    FromStats_StreamSize                     : 132771840

    Text #1
    ID                                       : 4
    Format                                   : PGS
    Muxing mode                              : zlib
    Codec ID                                 : S_HDMV/PGS
    Codec ID/Info                            : Picture based subtitle format used on BDs/HD-DVDs
    Language                                 : English
    Default                                  : No
    Forced                                   : No
    Statistics Tags Issue                    : mkvmerge v15.0.0 ('Duel with the Devil') 64-bit 2018-11-10 21:02:23 / mkvmerge v15.0.0 ('Duel with the Devil') 64-bit 2018-11-10 21:02:23 / UTC 2018-11-03T04:33:08Z
    FromStats_BitRate                        : 40016
    FromStats_Duration                       : 00:27:25.019000000
    FromStats_FrameCount                     : 1011
    FromStats_StreamSize                     : 8228484

    Text #2
    ID                                       : 5
    Format                                   : PGS
    Muxing mode                              : zlib
    Codec ID                                 : S_HDMV/PGS
    Codec ID/Info                            : Picture based subtitle format used on BDs/HD-DVDs
    Language                                 : Spanish
    Default                                  : No
    Forced                                   : No
    Statistics Tags Issue                    : mkvmerge v15.0.0 ('Duel with the Devil') 64-bit 2018-11-10 21:02:23 / mkvmerge v15.0.0 ('Duel with the Devil') 64-bit 2018-11-10 21:02:23 / UTC 2018-11-03T04:33:08Z
    FromStats_BitRate                        : 27579
    FromStats_Duration                       : 00:27:27.021000000
    FromStats_FrameCount                     : 704
    FromStats_StreamSize                     : 5678069

    Text #3
    ID                                       : 6
    Format                                   : PGS
    Muxing mode                              : zlib
    Codec ID                                 : S_HDMV/PGS
    Codec ID/Info                            : Picture based subtitle format used on BDs/HD-DVDs
    Title                                    : Forzados
    Language                                 : Spanish
    Default                                  : Yes
    Forced                                   : Yes
    Statistics Tags Issue                    : mkvmerge v15.0.0 ('Duel with the Devil') 64-bit 2018-11-10 21:02:23 / mkvmerge v15.0.0 ('Duel with the Devil') 64-bit 2018-11-10 21:02:23 / UTC 2018-11-03T04:33:08Z
    FromStats_BitRate                        : 345
    FromStats_Duration                       : 00:27:00.578000000
    FromStats_FrameCount                     : 10
    FromStats_StreamSize                     : 69891

    Menu
    00:00:00.000                             : :Chapter 1
    00:10:55.989                             : :Chapter 2
    00:17:54.574                             : :Chapter 3
    00:26:37.930                             : :Chapter 4

     

  • Peso: 1.50 GiB X Capitulo

Sinopsis

Secuela de la saga de películas “Posesión infernal”. Ash ha pasado los últimos treinta años evitando madurar y luchando contra los horrores surgidos del Necronomicón. Sigue siendo el mismo malhablado sabelotodo de siempre pero de repente se encuentra con que debe volver a coger su motosierra para luchar contra una plaga de Deadites que amenaza con destruir toda la humanidad mientras intenta reconciliarse con su pasado.

Ficha técnica

Video trailer de la película

Enlaces de descarga

Rip de Bluray

Descargar Ash Vs Evil Dead (2018) Tercera Temporada Full 1080p Latino




Aportes de DPeliculasHDmega la pass es:dpeliculashdmega.org Aportes de CinemaniaHD la pass es:cinemaniahdd.com

Películas relacionadas

  • El Justiciero 2 (2018) Full 1080p Latino

    2018
    El Justiciero 2 (2018) Full 1080p Latino

    0.0 2h 0m 2018

    Descargar El Justiciero 2 (2018) Full 1080p Latino, Mega, Google Drive. Robert McCall (Denzel Washington)...

    Director: Donald Sparks

    Género: Acción

    Actores: Wesley Pereira

  • Titanes (2018) Temporada 01 Web-DL 1080p Subtitulado

    2018
    Titanes (2018) Temporada 01 Web-DL 1080p Subtitulado

    3.3 0h 43m 2018

    Descargar Titanes (2018) Temporada 01 Web-DL 1080p Subtitulado; Mega, Google Drive. Un equipo de jóvenes...

    Director: Greg Berlanti

    Género: Action & Adventure

    Actores: Teagan Croft

Comentarios 0