×

¿Problemas para descargar con Mozilla, EDGE? Deshabilita la opción "Abrir vinculos en una pestaña nueva" tal como lo muestra ésta imagen.

Asfixia (2018) WEB-DL 1080p Latino

1.045 vistas

Información de Asfixia (2018) WEB-DL 1080p Latino

Datos de la película

  • Calidad: WEBDL
  • Audio: Español Latino AC3 5.1 iTunes
  • Subtitulos: No
  • Resolución: 1912x1072
  • Formato: MKV
  • Codec: H.264
  • Encoder: cinemaniahd
  • Mediainfo: Clic para Mostrar Datos Ver
  • Asfixia (2018) WEB-DL 1080p Latino.mkv
    Format                      : Matroska
    Format version              : Version 4
    File size                   : 3.51 GiB
    Duration                    : 1 h 28 min
    Overall bit rate            : 5 693 kb/s
    Encoded date                : UTC 2020-02-05 16:24:05
    Writing application         : mkvmerge v42.0.0 ('Overtime') 64-bit
    Writing library             : libebml v1.3.10 + libmatroska v1.5.2
    Cover                       : Yes
    Attachments                 : cover.jpg

    Video
    ID                          : 1
    Format                      : AVC
    Format/Info                 : Advanced Video Codec
    Format profile              : High@L4
    Format settings             : CABAC / 4 Ref Frames
    Format settings, CABAC      : Yes
    Format settings, ReFrames   : 4 frames
    Codec ID                    : V_MPEG4/ISO/AVC
    Duration                    : 1 h 28 min
    Bit rate                    : 5 307 kb/s
    Width                       : 1 912 pixels
    Height                      : 1 072 pixels
    Display aspect ratio        : 16:9
    Frame rate mode             : Constant
    Frame rate                  : 23.976 FPS
    Color space                 : YUV
    Chroma subsampling          : 4:2:0
    Bit depth                   : 8 bits
    Scan type                   : Progressive
    Bits/(Pixel*Frame)          : 0.108
    Stream size                 : 3.27 GiB (93%)
    Language                    : English
    Default                     : Yes
    Forced                      : No
    Color range                 : Limited
    Color primaries             : BT.709
    Transfer characteristics    : BT.709
    Matrix coefficients         : BT.709

    Audio
    ID                          : 2
    Format                      : AC-3
    Format/Info                 : Audio Coding 3
    Commercial name             : Dolby Digital
    Codec ID                    : A_AC3
    Duration                    : 1 h 28 min
    Bit rate mode               : Constant
    Bit rate                    : 384 kb/s
    Channel(s)                  : 6 channels
    Channel layout              : L R C LFE Ls Rs
    Sampling rate               : 48.0 kHz
    Frame rate                  : 31.250 FPS (1536 SPF)
    Bit depth                   : 16 bits
    Compression mode            : Lossy
    Delay relative to video     : -42 ms
    Stream size                 : 242 MiB (7%)
    Language                    : Spanish
    Service kind                : Complete Main
    Default                     : Yes
    Forced                      : No

    Menu
    00:00:00.000                : en:1
    00:12:12.691                : en:2
    00:22:52.329                : en:3
    00:34:42.622                : en:4
    00:46:15.605                : en:5
    00:57:17.391                : en:6
    01:09:12.313                : en:7
    01:20:30.783                : en:8

  • Peso: 3.51 GiB

Sinopsis

Después de salir de la cárcel, donde aprendió a cuidar a los enfermos, Alma, una mujer albina, está decidida a recuperar a toda costa algo mucho más importante que su propia libertad. Para hacerlo, Alma debe pasar sus noches cuidando a Clemente, un hipocondríaco obsesionado compulsivamente por evitar la muerte súbita. Su relación se mueve a través de la sospecha, el miedo y la compasión a la ternura y el amor.

Ficha técnica

  • Titulo original: Asfixia
  • Fecha de lanzamiento: 23-10-2018 (Mexico)
  • Director: Kenya Marquez
  • Género: Drama

Video trailer de la película

Enlaces de descarga

Rip de Bluray

Descargar Asfixia (2018) WEB-DL 1080p Latino




Aportes de DPeliculasHDmega la pass es:dpeliculashdmega.org Aportes de CinemaniaHD la pass es:cinemaniahdd.com Aportes recientes:cinemaniahdd.net
Guardado en : Drama

Películas relacionadas

descargar Asfixia (2018) WEB-DL 1080p Latino WEBDL 1080p gratis, Asfixia (2018) WEB-DL 1080p Latino WEBDL mega 1 link, Asfixia (2018) WEB-DL 1080p Latino WEBDL pelicula completa, descargar Asfixia (2018) WEB-DL 1080p Latino WEBDL gratis en mega.

Asfixia (2018) WEB-DL 1080p Latino pelicula full hd, Asfixia (2018) WEB-DL 1080p Latino mega latino, Asfixia (2018) WEB-DL 1080p Latino 4k latino, Asfixia (2018) WEB-DL 1080p Latino pelicula completa, Asfixia (2018) WEB-DL 1080p Latino descargar gratis, descargar Asfixia (2018) WEB-DL 1080p Latino pelicula latino, Asfixia (2018) WEB-DL 1080p Latino 1 link mega, Asfixia (2018) WEB-DL 1080p Latino 1 link google drive, Asfixia (2018) WEB-DL 1080p Latino hd 1080p latino.
Comentarios 0