×

¿Problemas para descargar con Mozilla, EDGE? Deshabilita la opción "Abrir vinculos en una pestaña nueva" tal como lo muestra ésta imagen.

Asesino Sin Memoria (2022) AMZN WEB-DL 4K UHD HDR Latino

1.165 vistas

Información de Asesino Sin Memoria (2022) AMZN WEB-DL 4K UHD HDR Latino

Datos de la película

  • Calidad: WEBDL
  • Audio: Español Latino AC3 5.1 WEB-DL - Ingles AC3 5.1 WEB-DL
  • Subtitulos: Español Latino SRT- FORZADOS SRT
  • Resolución: 3840x1600p
  • Formato: MKV
  • Codec: HEVC
  • Encoder: Melkor
  • Mediainfo: Clic para Mostrar Datos Ver
  • Asesino Sin Memoria (2022) AMZN WEB UHD HDR Latino.mkv
    Format                      : Matroska
    Format version              : Version 4
    File size                   : 12.4 GiB
    Duration                    : 1 h 53 min
    Overall bit rate            : 15.6 Mb/s
    Movie name                  : Memory (2022) CinemaniaHDD.Net
    Encoded date                : UTC 2022-05-20 03:21:02
    Writing application         : mkvmerge v56.1.0 ('My Friend') 64-bit
    Writing library             : libebml v1.4.2 + libmatroska v1.6.4
    Attachments                 : CINEMANIAHD.png

    Video
    ID                          : 1
    Format                      : HEVC
    Format/Info                 : High Efficiency Video Coding
    Format profile              : Main 10@L5@Main
    HDR format                  : SMPTE ST 2094 App 4, Version 1, HDR10+ Profile B compatible
    Codec ID                    : V_MPEGH/ISO/HEVC
    Duration                    : 1 h 53 min
    Bit rate                    : 14.6 Mb/s
    Width                       : 3 840 pixels
    Height                      : 1 600 pixels
    Display aspect ratio        : 2.40:1
    Frame rate mode             : Constant
    Frame rate                  : 23.976 (24000/1001) FPS
    Color space                 : YUV
    Chroma subsampling          : 4:2:0
    Bit depth                   : 10 bits
    Bits/(Pixel*Frame)          : 0.099
    Stream size                 : 11.6 GiB (93%)
    Title                       : Web 2160p HDR [CinemaniaHDD]
    Default                     : Yes
    Forced                      : No
    Color range                 : Limited
    Color primaries             : BT.2020
    Transfer characteristics    : PQ
    Matrix coefficients         : BT.2020 non-constant
    Mastering display color pri : Display P3
    Mastering display luminance : min: 0.0050 cd/m2, max: 1000 cd/m2
    Maximum Content Light Level : 1000 cd/m2
    Maximum Frame-Average Light : 642 cd/m2

    Audio #1
    ID                          : 2
    Format                      : AC-3
    Format/Info                 : Audio Coding 3
    Commercial name             : Dolby Digital
    Codec ID                    : A_AC3
    Duration                    : 1 h 53 min
    Bit rate mode               : Constant
    Bit rate                    : 384 kb/s
    Channel(s)                  : 6 channels
    Channel layout              : L R C LFE Ls Rs
    Sampling rate               : 48.0 kHz
    Frame rate                  : 31.250 FPS (1536 SPF)
    Compression mode            : Lossy
    Stream size                 : 313 MiB (2%)
    Title                       : Español Latino [CinemaniaHDD]
    Language                    : Spanish
    Service kind                : Complete Main
    Default                     : Yes
    Forced                      : Yes

    Audio #2
    ID                          : 3
    Format                      : E-AC-3
    Format/Info                 : Enhanced AC-3
    Commercial name             : Dolby Digital Plus
    Codec ID                    : A_EAC3
    Duration                    : 1 h 53 min
    Bit rate mode               : Constant
    Bit rate                    : 640 kb/s
    Channel(s)                  : 6 channels
    Channel layout              : L R C LFE Ls Rs
    Sampling rate               : 48.0 kHz
    Frame rate                  : 31.250 FPS (1536 SPF)
    Compression mode            : Lossy
    Delay relative to video     : 14 ms
    Stream size                 : 522 MiB (4%)
    Title                       : Ingles [CinemaniaHDD]
    Language                    : English
    Service kind                : Complete Main
    Default                     : No
    Forced                      : No

    Text #1
    ID                          : 4
    Format                      : UTF-8
    Codec ID                    : S_TEXT/UTF8
    Codec ID/Info               : UTF-8 Plain Text
    Duration                    : 1 h 4 min
    Bit rate                    : 0 b/s
    Count of elements           : 12
    Stream size                 : 315 Bytes (0%)
    Title                       : Forzados-SRT [CinemaniaHDD]
    Language                    : Spanish
    Default                     : Yes
    Forced                      : Yes

    Text #2
    ID                          : 5
    Format                      : UTF-8
    Codec ID                    : S_TEXT/UTF8
    Codec ID/Info               : UTF-8 Plain Text
    Duration                    : 1 h 47 min
    Bit rate                    : 45 b/s
    Count of elements           : 1303
    Stream size                 : 35.8 KiB (0%)
    Title                       : Español-SRT [CinemaniaHDD]
    Language                    : Spanish
    Default                     : No
    Forced                      : No

    Text #3
    ID                          : 6
    Format                      : UTF-8
    Codec ID                    : S_TEXT/UTF8
    Codec ID/Info               : UTF-8 Plain Text
    Duration                    : 1 h 41 min
    Bit rate                    : 51 b/s
    Count of elements           : 1296
    Stream size                 : 38.4 KiB (0%)
    Title                       : Ingles-SRT [CinemaniaHDD]
    Language                    : English
    Default                     : No
    Forced                      : No

  • Peso: 12.4 GiB

Sinopsis

Descargar Asesino Sin Memoria (2022) AMZN WEB-DL 4K UHD HDR Latino. Alex, un asesino a sueldo, descubre que se ha convertido en un objetivo después de que se niega a completar un trabajo para una peligrosa organización criminal. Con el sindicato del crimen y el FBI persiguiéndolo, Alex tiene las habilidades para mantenerse a la vanguardia, excepto por una cosa: está luchando con una pérdida de memoria severa que afecta todos sus movimientos. Alex debe cuestionar cada una de sus acciones y en quién puede confiar en última instancia.

Ficha técnica

Video trailer de la película

Enlaces de descarga

Rip de Bluray

Descargar Asesino Sin Memoria (2022) AMZN WEB-DL 4K UHD HDR Latino




Aportes de DPeliculasHDmega la pass es:dpeliculashdmega.org Aportes de CinemaniaHD la pass es:cinemaniahdd.com
Guardado en : 4K HDR , 4K UHD , Acción , Crimen , Misterio , Suspenso

Películas relacionadas

Asesino Sin Memoria (2022) AMZN WEB-DL 4K UHD HDR Latino pelicula full hd, Asesino Sin Memoria (2022) AMZN WEB-DL 4K UHD HDR Latino mega latino, Asesino Sin Memoria (2022) AMZN WEB-DL 4K UHD HDR Latino 4k latino, Asesino Sin Memoria (2022) AMZN WEB-DL 4K UHD HDR Latino pelicula completa, Asesino Sin Memoria (2022) AMZN WEB-DL 4K UHD HDR Latino descargar gratis, descargar Asesino Sin Memoria (2022) AMZN WEB-DL 4K UHD HDR Latino pelicula latino, Asesino Sin Memoria (2022) AMZN WEB-DL 4K UHD HDR Latino 1 link mega, Asesino Sin Memoria (2022) AMZN WEB-DL 4K UHD HDR Latino 1 link google drive, Asesino Sin Memoria (2022) AMZN WEB-DL 4K UHD HDR Latino hd 1080p latino.
Comentarios 0