×

¿Problemas para descargar con Mozilla, EDGE? Deshabilita la opción "Abrir vinculos en una pestaña nueva" tal como lo muestra ésta imagen.

Asesino sin memoria (2022) HD 1080p Latino

6.360 vistas

Información de Asesino sin memoria (2022) HD 1080p Latino

Datos de la película

  • Calidad: 1080p
  • Audio: Español Latino AC3 5.1 WEB-DL - Ingles AC3 5.1 BLURAY
  • Subtitulos: Español Latino SRT- FORZADOS SRT
  • Resolución: 1920x804p
  • Formato: MKV
  • Codec: H.264
  • Encoder: Melkor
  • Mediainfo: Clic para Mostrar Datos Ver
  • Asesino Sin Memoria (2022) HD 1080p Latino.mkv
    Format                      : Matroska
    Format version              : Version 4
    File size                   : 3.50 GiB
    Duration                    : 1 h 54 min
    Overall bit rate            : 4 398 kb/s
    Movie name                  : Memory (2022) CinemaniaHDD.Net
    Encoded date                : UTC 2022-07-05 02:35:34
    Writing application         : mkvmerge v56.1.0 ('My Friend') 64-bit
    Writing library             : libebml v1.4.2 + libmatroska v1.6.4
    Attachments                 : CINEMANIAHD.png

    Video
    ID                          : 1
    Format                      : AVC
    Format/Info                 : Advanced Video Codec
    Format profile              : High@L4.1
    Format settings             : CABAC / 5 Ref Frames
    Format settings, CABAC      : Yes
    Format settings, Reference  : 5 frames
    Codec ID                    : V_MPEG4/ISO/AVC
    Duration                    : 1 h 54 min
    Bit rate                    : 3 500 kb/s
    Width                       : 1 920 pixels
    Height                      : 804 pixels
    Display aspect ratio        : 2.40:1
    Frame rate mode             : Constant
    Frame rate                  : 23.976 (24000/1001) FPS
    Color space                 : YUV
    Chroma subsampling          : 4:2:0
    Bit depth                   : 8 bits
    Scan type                   : Progressive
    Bits/(Pixel*Frame)          : 0.095
    Stream size                 : 2.79 GiB (80%)
    Title                       : HD1080p [CinemaniaHDD]
    Writing library             : x264 core 163 r3059 b684ebe0
    Encoding settings           : cabac=1 / ref=5 / deblock=1:-1:-1 / analyse=0x3:0x133 / me=umh / subme=9 / psy=1 / psy_rd=1.00:0.15 / mixed_ref=1 / me_range=16 / chroma_me=1 / trellis=2 / 8x8dct=1 / cqm=0 / deadzone=21,11 / fast_pskip=1 / chroma_qp_offset=-3 / threads=24 / lookahead_threads=2 / sliced_threads=0 / nr=0 / decimate=1 / interlaced=0 / bluray_compat=0 / constrained_intra=0 / bframes=3 / b_pyramid=2 / b_adapt=2 / b_bias=0 / direct=3 / weightb=1 / open_gop=0 / weightp=2 / keyint=240 / keyint_min=24 / scenecut=40 / intra_refresh=0 / rc_lookahead=60 / rc=2pass / mbtree=1 / bitrate=3500 / ratetol=1.0 / qcomp=0.60 / qpmin=0 / qpmax=69 / qpstep=4 / cplxblur=20.0 / qblur=0.5 / vbv_maxrate=62500 / vbv_bufsize=78125 / nal_hrd=none / filler=0 / ip_ratio=1.40 / aq=1:1.00
    Default                     : Yes
    Forced                      : Yes
    Color range                 : Limited
    Color primaries             : BT.709
    Transfer characteristics    : BT.709
    Matrix coefficients         : BT.709

    Audio #1
    ID                          : 2
    Format                      : AC-3
    Format/Info                 : Audio Coding 3
    Commercial name             : Dolby Digital
    Codec ID                    : A_AC3
    Duration                    : 1 h 54 min
    Bit rate mode               : Constant
    Bit rate                    : 448 kb/s
    Channel(s)                  : 6 channels
    Channel layout              : L R C LFE Ls Rs
    Sampling rate               : 48.0 kHz
    Frame rate                  : 31.250 FPS (1536 SPF)
    Compression mode            : Lossy
    Delay relative to video     : -5 ms
    Stream size                 : 366 MiB (10%)
    Title                       : Español Latino [CinemaniaHDD]
    Language                    : Spanish
    Service kind                : Complete Main
    Default                     : Yes
    Forced                      : Yes

    Audio #2
    ID                          : 3
    Format                      : AC-3
    Format/Info                 : Audio Coding 3
    Commercial name             : Dolby Digital
    Codec ID                    : A_AC3
    Duration                    : 1 h 54 min
    Bit rate mode               : Constant
    Bit rate                    : 448 kb/s
    Channel(s)                  : 6 channels
    Channel layout              : L R C LFE Ls Rs
    Sampling rate               : 48.0 kHz
    Frame rate                  : 31.250 FPS (1536 SPF)
    Compression mode            : Lossy
    Delay relative to video     : -5 ms
    Stream size                 : 366 MiB (10%)
    Title                       : Ingles [CinemaniaHDD]
    Language                    : English
    Service kind                : Complete Main
    Default                     : No
    Forced                      : No

    Text #1
    ID                          : 4
    Format                      : UTF-8
    Codec ID                    : S_TEXT/UTF8
    Codec ID/Info               : UTF-8 Plain Text
    Duration                    : 1 h 4 min
    Bit rate                    : 0 b/s
    Count of elements           : 12
    Stream size                 : 315 Bytes (0%)
    Title                       : Forzados-SRT [CinemaniaHDD]
    Language                    : Spanish
    Default                     : Yes
    Forced                      : Yes

    Text #2
    ID                          : 5
    Format                      : UTF-8
    Codec ID                    : S_TEXT/UTF8
    Codec ID/Info               : UTF-8 Plain Text
    Duration                    : 1 h 47 min
    Bit rate                    : 45 b/s
    Count of elements           : 1303
    Stream size                 : 35.8 KiB (0%)
    Title                       : Español-SRT [CinemaniaHDD]
    Language                    : Spanish
    Default                     : No
    Forced                      : No

    Menu
    00:00:00.000                : Chapter 01
    00:04:31.188                : Chapter 02
    00:10:13.696                : Chapter 03
    00:16:39.916                : Chapter 04
    00:21:34.126                : Chapter 05
    00:26:45.062                : Chapter 06
    00:33:06.026                : Chapter 07
    00:41:49.632                : Chapter 08
    00:47:43.486                : Chapter 09
    00:54:00.404                : Chapter 10
    00:58:39.516                : Chapter 11
    01:05:04.025                : Chapter 12
    01:10:49.162                : Chapter 13
    01:14:59.620                : Chapter 14
    01:19:26.470                : Chapter 15
    01:25:38.258                : Chapter 16
    01:29:55.473                : Chapter 17
    01:35:35.355                : Chapter 18
    01:39:58.993                : Chapter 19
    01:46:33.053                : Chapter 20

  • Peso: 3.50 GiB

Sinopsis

Descargar Asesino sin memoria (2022) HD 1080p Latino. Alex, un asesino a sueldo, descubre que se ha convertido en un objetivo después de que se niega a completar un trabajo para una peligrosa organización criminal. Con el sindicato del crimen y el FBI persiguiéndolo, Alex tiene las habilidades para mantenerse a la vanguardia, excepto por una cosa: está luchando con una pérdida de memoria severa que afecta todos sus movimientos. Alex debe cuestionar cada una de sus acciones y en quién puede confiar en última instancia.

Ficha técnica

Video trailer de la película

Enlaces de descarga

Rip de Bluray

Descargar Asesino sin memoria (2022) HD 1080p Latino




Aportes de DPeliculasHDmega la pass es:dpeliculashdmega.org Aportes de CinemaniaHD la pass es:cinemaniahdd.com
Guardado en : Acción , Crimen , HD 1080p , Suspenso

Películas relacionadas

  • Togo (2022) NF WEB-DL 1080p Latino

    Togo (2022) NF WEB-DL 1080p Latino

    2022
    Togo (2022) NF WEB-DL 1080p Latino

    1h 35m 2022

    Descargar Togo (2022) NF WEB-DL 1080p Latino. Los narcos de poca monta están copando las calles de Montevideo...

    Director: Adrián Caetano

    Género: Crimen

    Actores: Tito Prieto

  • DC Liga De Supermascotas (2022) HD 1080p Latino

    DC Liga De Supermascotas (2022) HD 1080p Latino

    2022
    DC Liga De Supermascotas (2022) HD 1080p Latino

    1h 45m 2022

    Descargar DC Liga De Supermascotas (2022) HD 1080p Latino. Krypto el Superperro y Superman son amigos...

    Director: Sam Levine

    Género: Acción

    Actores: Yvette Nicole Brown

  • Invitacion Al Infierno (2022) MA WEB-DL 1080p Latino

    Invitacion Al Infierno (2022) MA WEB-DL 1080p Latino

    2022
    Invitacion Al Infierno (2022) MA WEB-DL 1080p Latino

    1h 45m 2022

    Descargar Invitacion Al Infierno (2022) MA WEB-DL 1080p Latino. Tras la muerte de su madre y quedarse...

    Director: Jessica M. Thompson

    Género: Suspenso

    Actores: Virág Bárány

descargar Asesino sin memoria (2022) HD 1080p Latino 1080p 1080p gratis, Asesino sin memoria (2022) HD 1080p Latino 1080p mega 1 link, Asesino sin memoria (2022) HD 1080p Latino 1080p pelicula completa, descargar Asesino sin memoria (2022) HD 1080p Latino 1080p gratis en mega.

Asesino sin memoria (2022) HD 1080p Latino pelicula full hd, Asesino sin memoria (2022) HD 1080p Latino mega latino, Asesino sin memoria (2022) HD 1080p Latino 4k latino, Asesino sin memoria (2022) HD 1080p Latino pelicula completa, Asesino sin memoria (2022) HD 1080p Latino descargar gratis, descargar Asesino sin memoria (2022) HD 1080p Latino pelicula latino, Asesino sin memoria (2022) HD 1080p Latino 1 link mega, Asesino sin memoria (2022) HD 1080p Latino 1 link google drive, Asesino sin memoria (2022) HD 1080p Latino hd 1080p latino.
Comentarios 0