Asesino: Mision Venganza (2017) WEBDL 1080p Latino

3.532 vistas
1 estrella2 estrellas3 estrellas4 estrellas5 estrellas (2 votos, promedio: 2,50 de 5)
Cargando…

Información de Asesino: Mision Venganza (2017) WEBDL 1080p Latino

Datos de la película

  • Calidad: WEBDL
  • Audio: Español Latino AC3 2.0 iTunes - Ingles AC3 5.1 iTunes
  • Subtitulos: Español Latino SRT
  • Resolución: 1912X792
  • Formato: MKV
  • Codec: H.264
  • Encoder: Dpelis
  • Mediainfo: Clic para Mostrar Datos Ver
  • Format                                   : Matroska
    Format version                           : Version 4 / Version 2
    File size                                : 4.10 GiB
    Duration                                 : 1 h 51 min
    Overall bit rate                         : 5 251 kb/s
    Movie name                               : dpeliculashdmega.org
    Encoded date                             : UTC 2017-11-21 07:06:09
    Writing application                      : mkvmerge v15.0.0 ('Duel with the Devil') 64-bit
    Writing library                          : libebml v1.3.5 + libmatroska v1.4.5

    Video
    ID                                       : 1
    Format                                   : AVC
    Format/Info                              : Advanced Video Codec
    Format profile                           : High@L4
    Format settings                          : CABAC / 5 Ref Frames
    Format settings, CABAC                   : Yes
    Format settings, RefFrames               : 5 frames
    Codec ID                                 : V_MPEG4/ISO/AVC
    Duration                                 : 1 h 51 min
    Bit rate                                 : 4 612 kb/s
    Width                                    : 1 912 pixels
    Height                                   : 792 pixels
    Display aspect ratio                     : 2.40:1
    Frame rate mode                          : Constant
    Frame rate                               : 23.976 (24000/1001) FPS
    Color space                              : YUV
    Chroma subsampling                       : 4:2:0
    Bit depth                                : 8 bits
    Scan type                                : Progressive
    Bits/(Pixel*Frame)                       : 0.127
    Stream size                              : 3.60 GiB (88%)
    Title                                    : Asesino: Mision Venganza (2017) WEBDL 1080p Latino
    Language                                 : English
    Default                                  : Yes
    Forced                                   : No
    Color range                              : Limited
    Color primaries                          : BT.709
    Transfer characteristics                 : BT.709
    Matrix coefficients                      : BT.709

    Audio #1
    ID                                       : 2
    Format                                   : AC-3
    Format/Info                              : Audio Coding 3
    Format settings, Endianness              : Big
    Codec ID                                 : A_AC3
    Duration                                 : 1 h 51 min
    Bit rate mode                            : Constant
    Bit rate                                 : 256 kb/s
    Channel(s)                               : 2 channels
    Channel positions                        : Front: L R
    Sampling rate                            : 48.0 kHz
    Frame rate                               : 31.250 FPS (1536 SPF)
    Bit depth                                : 16 bits
    Compression mode                         : Lossy
    Stream size                              : 205 MiB (5%)
    Title                                    : Latino-AC3
    Language                                 : Spanish
    Service kind                             : Complete Main
    Default                                  : Yes
    Forced                                   : No

    Audio #2
    ID                                       : 3
    Format                                   : AC-3
    Format/Info                              : Audio Coding 3
    Format settings, Endianness              : Big
    Codec ID                                 : A_AC3
    Duration                                 : 1 h 51 min
    Bit rate mode                            : Constant
    Bit rate                                 : 384 kb/s
    Channel(s)                               : 6 channels
    Channel positions                        : Front: L C R, Side: L R, LFE
    Sampling rate                            : 48.0 kHz
    Frame rate                               : 31.250 FPS (1536 SPF)
    Bit depth                                : 16 bits
    Compression mode                         : Lossy
    Stream size                              : 307 MiB (7%)
    Title                                    : Ingles-AC3
    Language                                 : English
    Service kind                             : Complete Main
    Default                                  : No
    Forced                                   : No

    Text #1
    ID                                       : 4
    Format                                   : UTF-8
    Codec ID                                 : S_TEXT/UTF8
    Codec ID/Info                            : UTF-8 Plain Text
    Duration                                 : 1 h 39 min
    Bit rate                                 : 3 b/s
    Count of elements                        : 77
    Stream size                              : 2.37 KiB (0%)
    Title                                    : Forzados
    Language                                 : Spanish
    Default                                  : Yes
    Forced                                   : No

    Text #2
    ID                                       : 5
    Format                                   : UTF-8
    Codec ID                                 : S_TEXT/UTF8
    Codec ID/Info                            : UTF-8 Plain Text
    Duration                                 : 1 h 44 min
    Bit rate                                 : 47 b/s
    Count of elements                        : 1102
    Stream size                              : 36.0 KiB (0%)
    Language                                 : Spanish
    Default                                  : No
    Forced                                   : No

    Menu
    00:00:00.000                             : en:1
    00:05:33.000                             : en:2
    00:17:16.000                             : en:3
    00:29:18.000                             : en:4
    00:41:00.000                             : en:5
    00:54:30.000                             : en:6
    01:07:10.000                             : en:7
    01:17:46.000                             : en:8
    01:29:30.000                             : en:9
    01:43:29.000                             : en:10

     

  • Peso: 4.10 GiB

Sinopsis

Adaptación cinematográfica de la novela homónima de Vince Flynnm, cuya trama presenta a Mitch Rapp (Dylan O’Brien), un estudiante ejemplar que, tras la terrible muerte de su novia en una playa a manos de unos terorristas, decide cambiar el rumbo de su vida y dedicarse a la caza de esta clase de delincuentes. Un año más tarde, entra en las filas de la CIA, institución en la que estará a las órdenes de su mentor, Stan Hurley (Michael Keaton).

Ficha técnica

  • Titulo original: American Assassin
  • Fecha de lanzamiento: 14-09-2017
  • Director: Michael Cuesta
  • Género: Acción, Suspense
  • Puntuación: 2.5 2 votos
  • Duración:
    1 h 51 min

Video trailer de la película

Enlaces de descarga

Rip de Bluray

Descargar Asesino: Mision Venganza (2017) WEBDL 1080p Latino




Aportes de DPeliculasHDmega la pass es:dpeliculashdmega.org Aportes de CinemaniaHD la pass es:cinemaniahdd.com
Guardado en : Acción , Suspense

Películas relacionadas

  • Cam (2018) NF 1080p Latino

    2018
    Cam (2018) NF 1080p Latino

    0.0 1h 34m 2018

    Alice es una camgirl con un código inamovible, que le permite mantener una cierta distancia con los...

    Director: Rachel Penner

    Género: Suspense

    Actores: Samantha Robinson

  • El Justiciero 2 (2018) Full 1080p Latino

    2018
    El Justiciero 2 (2018) Full 1080p Latino

    5.0 2h 0m 2018

    Descargar El Justiciero 2 (2018) Full 1080p Latino, Mega, Google Drive. Robert McCall (Denzel Washington)...

    Director: Donald Sparks

    Género: Acción

    Actores: Wesley Pereira

Comentarios 2
  • charlie - 11 diciembre, 2017

    no puedo bajarlo del rar por???

    • Dpelis2 - 11 diciembre, 2017

      Y cual es el problema necesito mas información