×

¿Problemas para descargar con Mozilla, EDGE? Deshabilita la opción "Abrir vinculos en una pestaña nueva" tal como lo muestra ésta imagen.

Asesino de Mujeres (2016) Temporada 1 WEB-DL 1080p Latino

428 vistas

Información de Asesino de Mujeres (2016) Temporada 1 WEB-DL 1080p Latino

Datos de la película

  • Calidad: WEBDL
  • Audio: Español Latino AC3 2.0
  • Subtitulos: No
  • Resolución: 1920x1080
  • Formato: MKV
  • Codec: H.264
  • Encoder: cinemaniahdd
  • Mediainfo: Clic para Mostrar Datos Ver
  • ASESINO DE MUJERES T01E01 WEB-DL 1080p Latino.mkv
    Format                      : Matroska
    Format version              : Version 4
    File size                   : 1.09 GiB
    Duration                    : 42 min 40 s
    Overall bit rate mode       : Variable
    Overall bit rate            : 3 658 kb/s
    Movie name                  : ASESINO DE MUJERES  T01E01 - QUIEN TIENE MIEDO A LOS MONSTRUOS
    Encoded date                : UTC 2020-05-10 01:42:06
    Writing application         : mkvmerge v46.0.0 ('No Deeper Escape') 64-bit
    Writing library             : libebml v1.3.10 + libmatroska v1.5.2

    Video
    ID                          : 1
    Format                      : AVC
    Format/Info                 : Advanced Video Codec
    Format profile              : Main@L4
    Format settings             : CABAC / 1 Ref Frames
    Format settings, CABAC      : Yes
    Format settings, Reference  : 1 frame
    Codec ID                    : V_MPEG4/ISO/AVC
    Duration                    : 42 min 40 s
    Bit rate mode               : Variable
    Bit rate                    : 3 528 kb/s
    Maximum bit rate            : 4 000 kb/s
    Width                       : 1 920 pixels
    Height                      : 1 080 pixels
    Display aspect ratio        : 16:9
    Frame rate mode             : Constant
    Frame rate                  : 29.970 (30000/1001) FPS
    Color space                 : YUV
    Chroma subsampling          : 4:2:0
    Bit depth                   : 8 bits
    Scan type                   : Progressive
    Bits/(Pixel*Frame)          : 0.057
    Stream size                 : 1.05 GiB (96%)
    Title                       : CinemaniaHDD
    Language                    : English
    Default                     : Yes
    Forced                      : No

    Audio
    ID                          : 2
    Format                      : AAC LC
    Format/Info                 : Advanced Audio Codec Low Complexity
    Codec ID                    : A_AAC-2
    Duration                    : 42 min 40 s
    Bit rate                    : 127 kb/s
    Channel(s)                  : 2 channels
    Channel layout              : L R
    Sampling rate               : 44.1 kHz
    Frame rate                  : 43.066 FPS (1024 SPF)
    Compression mode            : Lossy
    Delay relative to video     : -23 ms
    Stream size                 : 38.8 MiB (3%)
    Title                       : Español latino [CinemaniaHDD]
    Language                    : Spanish
    Default                     : Yes
    Forced                      : No

     

  • Peso: 1.09 GiB C/U

Sinopsis

Josh Zeman y Rachel Miller, se embarcan en una escalofriante cacería de cinco asesinos seriales, todavía activos en Estados Unidos. Entrevistando periodistas, detectives y testigos, revelaran detalles y secretos que revolucionarán el género del docu-crimen

Ficha técnica

  • Titulo original: The Killing Season
  • Fecha de lanzamiento: 12-11-2016 (US)
  • Género: Crimen, Documental, Series

Video trailer de la película

Enlaces de descarga

Rip de Bluray

Descargar Asesino de Mujeres (2016) Temporada 1 WEB-DL 1080p Latino




Aportes de DPeliculasHDmega la pass es:dpeliculashdmega.org Aportes de CinemaniaHD la pass es:cinemaniahdd.com
Guardado en : Crimen , Documental , Series

Películas relacionadas

descargar Asesino de Mujeres (2016) Temporada 1 WEB-DL 1080p Latino WEBDL 1080p gratis, Asesino de Mujeres (2016) Temporada 1 WEB-DL 1080p Latino WEBDL mega 1 link, Asesino de Mujeres (2016) Temporada 1 WEB-DL 1080p Latino WEBDL serie completa, descargar Asesino de Mujeres (2016) Temporada 1 WEB-DL 1080p Latino WEBDL gratis en mega.

Asesino de Mujeres (2016) Temporada 1 WEB-DL 1080p Latino pelicula full hd, Asesino de Mujeres (2016) Temporada 1 WEB-DL 1080p Latino mega latino, Asesino de Mujeres (2016) Temporada 1 WEB-DL 1080p Latino 4k latino, Asesino de Mujeres (2016) Temporada 1 WEB-DL 1080p Latino pelicula completa, Asesino de Mujeres (2016) Temporada 1 WEB-DL 1080p Latino descargar gratis, descargar Asesino de Mujeres (2016) Temporada 1 WEB-DL 1080p Latino pelicula latino, Asesino de Mujeres (2016) Temporada 1 WEB-DL 1080p Latino 1 link mega, Asesino de Mujeres (2016) Temporada 1 WEB-DL 1080p Latino 1 link google drive, Asesino de Mujeres (2016) Temporada 1 WEB-DL 1080p Latino hd 1080p latino.
Comentarios 0