×

¿Problemas para descargar con Mozilla, EDGE? Deshabilita la opción "Abrir vinculos en una pestaña nueva" tal como lo muestra ésta imagen.

Asesinato En Middle Beach (2020) Temporada 1 HMAX WEB-DL 1080p Latino

451 vistas

Información de Asesinato En Middle Beach (2020) Temporada 1 HMAX WEB-DL 1080p Latino

Datos de la película

  • Calidad: WEBDL
  • Audio: Español Latino AC3 2.0 WEB-DL - Ingles AC3 5.1 WEB-DL
  • Subtitulos: Español Latino SRT- FORZADOS SRT
  • Resolución: 1920x1080
  • Formato: MKV
  • Codec: H.264
  • Encoder: cinemaniahdd
  • Mediainfo: Clic para Mostrar Datos Ver
  • Murder on Middle Beach T01E01 HMAX WEB-DL 1080p Latino [CNMNHDD].mkv
    Format                      : Matroska
    Format version              : Version 4
    File size                   : 3.45 GiB
    Duration                    : 55 min 34 s
    Overall bit rate mode       : Variable
    Overall bit rate            : 8 875 kb/s
    Movie name                  : Murder on Middle Beach T01E01 - CinemaniaHDD.Net
    Encoded date                : UTC 2020-11-16 04:00:53
    Writing application         : mkvmerge v51.0.0 ('I Wish') 64-bit
    Writing library             : libebml v1.4.0 + libmatroska v1.6.2

    Video
    ID                          : 1
    Format                      : AVC
    Format/Info                 : Advanced Video Codec
    Format profile              : High@L4
    Format settings             : CABAC / 4 Ref Frames
    Format settings, CABAC      : Yes
    Format settings, Reference  : 4 frames
    Codec ID                    : V_MPEG4/ISO/AVC
    Duration                    : 55 min 34 s
    Bit rate mode               : Variable
    Bit rate                    : 8 232 kb/s
    Maximum bit rate            : 12.4 Mb/s
    Width                       : 1 920 pixels
    Height                      : 1 080 pixels
    Display aspect ratio        : 16:9
    Frame rate mode             : Constant
    Frame rate                  : 23.976 (24000/1001) FPS
    Color space                 : YUV
    Chroma subsampling          : 4:2:0
    Bit depth                   : 8 bits
    Scan type                   : Progressive
    Bits/(Pixel*Frame)          : 0.166
    Stream size                 : 3.20 GiB (93%)
    Title                       : CinemaniaHDD
    Language                    : English
    Default                     : Yes
    Forced                      : No
    Color range                 : Limited
    Color primaries             : BT.709
    Transfer characteristics    : BT.709
    Matrix coefficients         : BT.709

    Audio #1
    ID                          : 2
    Format                      : AC-3
    Format/Info                 : Audio Coding 3
    Commercial name             : Dolby Digital
    Codec ID                    : A_AC3
    Duration                    : 55 min 34 s
    Bit rate mode               : Constant
    Bit rate                    : 256 kb/s
    Channel(s)                  : 2 channels
    Channel layout              : L R
    Sampling rate               : 48.0 kHz
    Frame rate                  : 31.250 FPS (1536 SPF)
    Compression mode            : Lossy
    Stream size                 : 102 MiB (3%)
    Title                       : Español latino [CinemaniaHDD]
    Language                    : Spanish
    Service kind                : Complete Main
    Default                     : Yes
    Forced                      : No

    Audio #2
    ID                          : 3
    Format                      : AC-3
    Format/Info                 : Audio Coding 3
    Commercial name             : Dolby Digital
    Codec ID                    : A_AC3
    Duration                    : 55 min 34 s
    Bit rate mode               : Constant
    Bit rate                    : 384 kb/s
    Channel(s)                  : 6 channels
    Channel layout              : L R C LFE Ls Rs
    Sampling rate               : 48.0 kHz
    Frame rate                  : 31.250 FPS (1536 SPF)
    Compression mode            : Lossy
    Stream size                 : 153 MiB (4%)
    Title                       : Inglés [CinemaniaHDD]
    Language                    : English
    Service kind                : Complete Main
    Default                     : No
    Forced                      : No

    Text #1
    ID                          : 4
    Format                      : UTF-8
    Codec ID                    : S_TEXT/UTF8
    Codec ID/Info               : UTF-8 Plain Text
    Duration                    : 41 min 26 s
    Bit rate                    : 0 b/s
    Count of elements           : 7
    Stream size                 : 172 Bytes (0%)
    Title                       : Forzados [CinemaniaHDD]
    Language                    : Spanish
    Default                     : Yes
    Forced                      : Yes

    Text #2
    ID                          : 5
    Format                      : UTF-8
    Codec ID                    : S_TEXT/UTF8
    Codec ID/Info               : UTF-8 Plain Text
    Duration                    : 53 min 38 s
    Bit rate                    : 78 b/s
    Count of elements           : 906
    Stream size                 : 30.8 KiB (0%)
    Title                       : Español latino [CinemaniaHDD]
    Language                    : Spanish
    Default                     : No
    Forced                      : No

    Text #3
    ID                          : 6
    Format                      : UTF-8
    Codec ID                    : S_TEXT/UTF8
    Codec ID/Info               : UTF-8 Plain Text
    Duration                    : 55 min 31 s
    Bit rate                    : 87 b/s
    Count of elements           : 1406
    Stream size                 : 35.5 KiB (0%)
    Title                       : Inglés [CC] [CinemaniaHDD]
    Language                    : English
    Default                     : No
    Forced                      : No

     

  • Peso: 3.45 GiB Aprox ---- 15.4 GiB in 4 Chapters.

Sinopsis

Madison Hamburg dirige este documental de HBO de cuatro partes que examina el caso sin resolver de su madre, Barbara Hamburg, brutalmente asesinada en un barrio privado de clase media alta en Connecticut. En el camino, Madison revela una red de secretos familiares y locales, conexiones con figuras oscuras y viejos resentimientos de una ciudad engañosamente serena.

FINAL DE TEMPORADA

Ficha técnica

  • Titulo original: Murder on Middle Beach
  • Fecha de lanzamiento: 15-11-2020 (US)
  • Género: Series, Documental, HBO

Video trailer de la película

Enlaces de descarga

Rip de Bluray

Descargar Asesinato En Middle Beach (2020) Temporada 1 HMAX WEB-DL 1080p Latino




Aportes de DPeliculasHDmega la pass es:dpeliculashdmega.org Aportes de CinemaniaHD la pass es:cinemaniahdd.com
Guardado en : Series , Documental , HBO

Películas relacionadas

descargar Asesinato En Middle Beach (2020) Temporada 1 HMAX WEB-DL 1080p Latino WEBDL 1080p gratis, Asesinato En Middle Beach (2020) Temporada 1 HMAX WEB-DL 1080p Latino WEBDL mega 1 link, Asesinato En Middle Beach (2020) Temporada 1 HMAX WEB-DL 1080p Latino WEBDL serie completa, descargar Asesinato En Middle Beach (2020) Temporada 1 HMAX WEB-DL 1080p Latino WEBDL gratis en mega.

Asesinato En Middle Beach (2020) Temporada 1 HMAX WEB-DL 1080p Latino pelicula full hd, Asesinato En Middle Beach (2020) Temporada 1 HMAX WEB-DL 1080p Latino mega latino, Asesinato En Middle Beach (2020) Temporada 1 HMAX WEB-DL 1080p Latino 4k latino, Asesinato En Middle Beach (2020) Temporada 1 HMAX WEB-DL 1080p Latino pelicula completa, Asesinato En Middle Beach (2020) Temporada 1 HMAX WEB-DL 1080p Latino descargar gratis, descargar Asesinato En Middle Beach (2020) Temporada 1 HMAX WEB-DL 1080p Latino pelicula latino, Asesinato En Middle Beach (2020) Temporada 1 HMAX WEB-DL 1080p Latino 1 link mega, Asesinato En Middle Beach (2020) Temporada 1 HMAX WEB-DL 1080p Latino 1 link google drive, Asesinato En Middle Beach (2020) Temporada 1 HMAX WEB-DL 1080p Latino hd 1080p latino.
Comentarios 0