×

¿Problemas para descargar con Mozilla, EDGE? Deshabilita la opción "Abrir vinculos en una pestaña nueva" tal como lo muestra ésta imagen.

Ascensión de las maquinas (2018) Web-DL 1080p Latino

215 vistas

Información de Ascensión de las maquinas (2018) Web-DL 1080p Latino

Datos de la película

  • Calidad: WEBDL
  • Audio: Español Latino AC3 2.0 WEB-DL - Ingles AC3 5.1 WEB-DL
  • Subtitulos: Español Latino SRT- FORZADOS SRT
  • Resolución: 1920x720p
  • Formato: MKV
  • Codec: H.264
  • Encoder: CinemaniaHD
  • Mediainfo: Clic para Mostrar Datos Ver
  • Ascensión de las maquinas (2018) WebDL 1080p Latino.mkv
    Format                      : Matroska
    Format version              : Version 4
    File size                   : 3.18 GiB
    Duration                    : 1 h 26 min
    Overall bit rate            : 5 273 kb/s
    Movie name                  : A.I. Rising (2018) CinemaniaHDD.Net
    Encoded date                : UTC 2021-07-09 05:34:23
    Writing application         : mkvmerge v56.1.0 ('My Friend') 64-bit
    Writing library             : libebml v1.4.2 + libmatroska v1.6.4
    Cover                       : Yes
    Attachments                 : CINEMANIAHD.png / cover.jpg

    Video
    ID                          : 1
    Format                      : AVC
    Format/Info                 : Advanced Video Codec
    Format profile              : High@L4
    Format settings             : CABAC / 5 Ref Frames
    Format settings, CABAC      : Yes
    Format settings, Reference  : 5 frames
    Codec ID                    : V_MPEG4/ISO/AVC
    Duration                    : 1 h 26 min
    Bit rate                    : 4 630 kb/s
    Width                       : 1 920 pixels
    Height                      : 720 pixels
    Display aspect ratio        : 2.667
    Frame rate mode             : Constant
    Frame rate                  : 23.976 (24000/1001) FPS
    Color space                 : YUV
    Chroma subsampling          : 4:2:0
    Bit depth                   : 8 bits
    Scan type                   : Progressive
    Bits/(Pixel*Frame)          : 0.140
    Stream size                 : 2.80 GiB (88%)
    Title                       : WEB HD1080p [CinemaniaHDD]
    Language                    : English
    Default                     : Yes
    Forced                      : No
    Color range                 : Limited
    Color primaries             : BT.709
    Transfer characteristics    : BT.709
    Matrix coefficients         : BT.709

    Audio #1
    ID                          : 2
    Format                      : AC-3
    Format/Info                 : Audio Coding 3
    Commercial name             : Dolby Digital
    Codec ID                    : A_AC3
    Duration                    : 1 h 26 min
    Bit rate mode               : Constant
    Bit rate                    : 256 kb/s
    Channel(s)                  : 2 channels
    Channel layout              : L R
    Sampling rate               : 48.0 kHz
    Frame rate                  : 31.250 FPS (1536 SPF)
    Compression mode            : Lossy
    Delay relative to video     : -42 ms
    Stream size                 : 158 MiB (5%)
    Title                       : Español Latino [CinemaniaHDD]
    Language                    : Spanish
    Service kind                : Complete Main
    Default                     : Yes
    Forced                      : No

    Audio #2
    ID                          : 3
    Format                      : AC-3
    Format/Info                 : Audio Coding 3
    Commercial name             : Dolby Digital
    Codec ID                    : A_AC3
    Duration                    : 1 h 26 min
    Bit rate mode               : Constant
    Bit rate                    : 384 kb/s
    Channel(s)                  : 6 channels
    Channel layout              : L R C LFE Ls Rs
    Sampling rate               : 48.0 kHz
    Frame rate                  : 31.250 FPS (1536 SPF)
    Compression mode            : Lossy
    Delay relative to video     : -42 ms
    Stream size                 : 237 MiB (7%)
    Title                       : Ingles [CinemaniaHDD]
    Language                    : English
    Service kind                : Complete Main
    Default                     : No
    Forced                      : No

    Text #1
    ID                          : 4
    Format                      : UTF-8
    Codec ID                    : S_TEXT/UTF8
    Codec ID/Info               : UTF-8 Plain Text
    Duration                    : 1 h 11 min
    Bit rate                    : 1 b/s
    Count of elements           : 26
    Stream size                 : 708 Bytes (0%)
    Title                       : Forzados-SRT [CinemaniaHDD]
    Language                    : Spanish
    Default                     : Yes
    Forced                      : No

    Text #2
    ID                          : 5
    Format                      : UTF-8
    Codec ID                    : S_TEXT/UTF8
    Codec ID/Info               : UTF-8 Plain Text
    Duration                    : 1 h 22 min
    Bit rate                    : 45 b/s
    Count of elements           : 724
    Stream size                 : 27.4 KiB (0%)
    Title                       : Español-SRT [CinemaniaHDD]
    Language                    : Spanish
    Default                     : No
    Forced                      : No

    Menu
    00:00:00.000                : 1
    00:17:22.665                : 2
    00:34:48.000                : 3
    00:52:18.549                : 4
    01:12:05.818                : 5
    01:22:05.542                : 6

  • Peso: 3.18 GiB

Sinopsis

Descargar Ascensión de las maquinas (2018) Web-DL 1080p Latino. 2148; el capitalismo, que ha exprimido todos los recursos terrestres, ha sido reemplazado por el socialismo “para equilibrar la situación en la que se encuentra la Humanidad”; grandes empresas colonizan otros planetas; y el astronauta yugoslavo Milutin es enviado a Alpha Centauri por la Ederlezi Corporation, de la “Reinstaurada URSS”, para “exportar su ideología”. Antes de la misión, un “ingeniero social” le informa de que no estará solo, le acompañará Nimani, una androide muy avanzada tecnológicamente que podrá actuar como compañera y asistente durante el viaje.

Ficha técnica

Video trailer de la película

Enlaces de descarga

Rip de Bluray

Descargar Ascensión de las maquinas (2018) Web-DL 1080p Latino




Aportes de DPeliculasHDmega la pass es:dpeliculashdmega.org Aportes de CinemaniaHD la pass es:cinemaniahdd.com
Guardado en : Ciencia ficción , Drama , Romance

Películas relacionadas

descargar Ascensión de las maquinas (2018) Web-DL 1080p Latino WEBDL 1080p gratis, Ascensión de las maquinas (2018) Web-DL 1080p Latino WEBDL mega 1 link, Ascensión de las maquinas (2018) Web-DL 1080p Latino WEBDL pelicula completa, descargar Ascensión de las maquinas (2018) Web-DL 1080p Latino WEBDL gratis en mega.

Ascensión de las maquinas (2018) Web-DL 1080p Latino pelicula full hd, Ascensión de las maquinas (2018) Web-DL 1080p Latino mega latino, Ascensión de las maquinas (2018) Web-DL 1080p Latino 4k latino, Ascensión de las maquinas (2018) Web-DL 1080p Latino pelicula completa, Ascensión de las maquinas (2018) Web-DL 1080p Latino descargar gratis, descargar Ascensión de las maquinas (2018) Web-DL 1080p Latino pelicula latino, Ascensión de las maquinas (2018) Web-DL 1080p Latino 1 link mega, Ascensión de las maquinas (2018) Web-DL 1080p Latino 1 link google drive, Ascensión de las maquinas (2018) Web-DL 1080p Latino hd 1080p latino.
Comentarios 0