Asalto a la Casa de Moneda (2021) PLACEBO Full HD 1080p Latino

56 vistas
1 estrella2 estrellas3 estrellas4 estrellas5 estrellas (Ninguna valoración todavía)
Cargando...

Información de Asalto a la Casa de Moneda (2021) PLACEBO Full HD 1080p Latino

Datos de la película

  • Calidad: Full 1080p
  • Audio: Español Latino AC3 5.1 WEB-DL - Ingles DTS 5.1 BLURAY
  • Subtitulos: Español Latino PGS - Ingles PGS
  • Resolución: 1920x1080p
  • Formato: MKV
  • Codec: H.264
  • Encoder: Melkor
  • Mediainfo: Clic para Mostrar Datos Ver
  • Asalto A La Casa De Moneda (2021) PLACEBO 1080p Latino.mkv
    Format                      : Matroska
    Format version              : Version 4
    File size                   : 5.35 GiB
    Duration                    : 1 h 58 min
    Overall bit rate            : 6 470 kb/s
    Movie name                  : Way Down - The Vault (2021) CinemaniaHDD.Net
    Encoded date                : UTC 2021-10-15 15:15:59
    Writing application         : mkvmerge v56.1.0 ('My Friend') 64-bit
    Writing library             : libebml v1.4.2 + libmatroska v1.6.4
    Attachments                 : CINEMANIAHD.png

    Video
    ID                          : 1
    Format                      : AVC
    Format/Info                 : Advanced Video Codec
    Format profile              : High@L4.1
    Format settings             : CABAC / 4 Ref Frames
    Format settings, CABAC      : Yes
    Format settings, Reference  : 4 frames
    Codec ID                    : V_MPEG4/ISO/AVC
    Duration                    : 1 h 58 min
    Bit rate                    : 4 292 kb/s
    Width                       : 1 920 pixels
    Height                      : 1 080 pixels
    Display aspect ratio        : 16:9
    Frame rate mode             : Constant
    Frame rate                  : 23.976 (24000/1001) FPS
    Color space                 : YUV
    Chroma subsampling          : 4:2:0
    Bit depth                   : 8 bits
    Scan type                   : Progressive
    Bits/(Pixel*Frame)          : 0.086
    Stream size                 : 3.55 GiB (66%)
    Title                       : Full HD1080p [CinemaniaHDD]
    Writing library             : x264 core 163 r3059 b684ebe0
    Encoding settings           : cabac=1 / ref=4 / deblock=1:0:0 / analyse=0x3:0x133 / me=tesa / subme=11 / psy=1 / psy_rd=1.00:0.00 / mixed_ref=1 / me_range=24 / chroma_me=1 / trellis=2 / 8x8dct=1 / cqm=0 / deadzone=21,11 / fast_pskip=0 / chroma_qp_offset=-2 / threads=24 / lookahead_threads=6 / sliced_threads=0 / nr=0 / decimate=1 / interlaced=0 / bluray_compat=0 / constrained_intra=0 / bframes=16 / b_pyramid=2 / b_adapt=2 / b_bias=0 / direct=3 / weightb=1 / open_gop=0 / weightp=2 / keyint=240 / keyint_min=24 / scenecut=40 / intra_refresh=0 / rc_lookahead=60 / rc=crf / mbtree=1 / crf=19.0 / qcomp=0.60 / qpmin=0 / qpmax=69 / qpstep=4 / vbv_maxrate=62500 / vbv_bufsize=78125 / crf_max=0.0 / nal_hrd=none / filler=0 / ip_ratio=1.40 / aq=1:1.00
    Default                     : Yes
    Forced                      : Yes
    Color range                 : Limited
    Color primaries             : BT.709
    Transfer characteristics    : BT.709
    Matrix coefficients         : BT.709

    Audio #1
    ID                          : 2
    Format                      : AC-3
    Format/Info                 : Audio Coding 3
    Commercial name             : Dolby Digital
    Codec ID                    : A_AC3
    Duration                    : 1 h 58 min
    Bit rate mode               : Constant
    Bit rate                    : 640 kb/s
    Channel(s)                  : 6 channels
    Channel layout              : L R C LFE Ls Rs
    Sampling rate               : 48.0 kHz
    Frame rate                  : 31.250 FPS (1536 SPF)
    Compression mode            : Lossy
    Stream size                 : 542 MiB (10%)
    Title                       : Español Latino [CinemaniaHDD]
    Language                    : Spanish
    Service kind                : Complete Main
    Default                     : Yes
    Forced                      : Yes

    Audio #2
    ID                          : 3
    Format                      : DTS
    Format/Info                 : Digital Theater Systems
    Codec ID                    : A_DTS
    Duration                    : 1 h 58 min
    Bit rate mode               : Constant
    Bit rate                    : 1 509 kb/s
    Channel(s)                  : 6 channels
    Channel layout              : C L R Ls Rs LFE
    Sampling rate               : 48.0 kHz
    Frame rate                  : 93.750 FPS (512 SPF)
    Bit depth                   : 24 bits
    Compression mode            : Lossy
    Stream size                 : 1.25 GiB (23%)
    Title                       : Ingles [CinemaniaHDD]
    Language                    : English
    Default                     : No
    Forced                      : No

    Text #1
    ID                          : 4
    ID in the original source m : 4610 (0x1202)
    Format                      : PGS
    Muxing mode                 : zlib
    Codec ID                    : S_HDMV/PGS
    Codec ID/Info               : Picture based subtitle format used on BDs/HD-DVDs
    Duration                    : 1 h 56 min
    Bit rate                    : 25.7 kb/s
    Count of elements           : 2056
    Stream size                 : 21.4 MiB (0%)
    Title                       : Español-PGS [CinemaniaHDD]
    Language                    : Spanish
    Default                     : No
    Forced                      : No
    Original source medium      : Blu-ray

    Text #2
    ID                          : 5
    ID in the original source m : 4608 (0x1200)
    Format                      : PGS
    Muxing mode                 : zlib
    Codec ID                    : S_HDMV/PGS
    Codec ID/Info               : Picture based subtitle format used on BDs/HD-DVDs
    Duration                    : 1 h 46 min
    Bit rate                    : 26.9 kb/s
    Count of elements           : 2004
    Stream size                 : 20.5 MiB (0%)
    Title                       : Ingles-PGS [CinemaniaHDD]
    Language                    : English
    Default                     : No
    Forced                      : No
    Original source medium      : Blu-ray

    Text #3
    ID                          : 6
    Format                      : UTF-8
    Codec ID                    : S_TEXT/UTF8
    Codec ID/Info               : UTF-8 Plain Text
    Duration                    : 1 h 47 min
    Bit rate                    : 1 b/s
    Count of elements           : 36
    Stream size                 : 981 Bytes (0%)
    Title                       : Forzados-SRT [CinemaniaHDD]
    Language                    : Spanish
    Default                     : Yes
    Forced                      : Yes

    Text #4
    ID                          : 7
    Format                      : UTF-8
    Codec ID                    : S_TEXT/UTF8
    Codec ID/Info               : UTF-8 Plain Text
    Duration                    : 1 h 56 min
    Bit rate                    : 37 b/s
    Count of elements           : 1046
    Stream size                 : 32.2 KiB (0%)
    Title                       : Español-SRT [CinemaniaHDD]
    Language                    : Spanish
    Default                     : No
    Forced                      : No

    Menu
    00:00:00.000                : Chapter 01
    00:06:59.377                : Chapter 02
    00:10:44.769                : Chapter 03
    00:20:10.792                : Chapter 04
    00:25:20.101                : Chapter 05
    00:32:20.605                : Chapter 06
    00:39:02.923                : Chapter 07
    00:46:05.304                : Chapter 08
    00:52:09.835                : Chapter 09
    01:00:57.028                : Chapter 10
    01:05:49.946                : Chapter 11
    01:12:01.317                : Chapter 12
    01:19:02.487                : Chapter 13
    01:25:57.652                : Chapter 14
    01:33:18.217                : Chapter 15
    01:39:06.065                : Chapter 16
    01:45:17.853                : Chapter 17
    01:49:35.986                : Chapter 18

  • Peso: 5.35 GiB

Sinopsis

Descargar Asalto a la Casa de Moneda (2021) PLACEBO Full HD 1080p Latino. Hay un banco completamente distinto a cualquier otro, absolutamente inexpugnable. Nadie ha podido robar ese banco, no existen planos ni datos, y nadie sabe de qué manera se ha construido la cámara acorazada de su interior. El ingeniero Thom Laybrick no tiene miedo a nada, lo único que piensa es en entrar en esa cámara acorazada y robar un misterioso objeto que hay en su interior. Un objeto que sólo estará ahí durante 10 días. Durante este tiempo, una esperadísima final de fútbol se celebrará en España, por lo que Laybrick tendrá una oportunidad de oro para entrar en el banco sin que nadie lo vea.

Ficha técnica

Video trailer de la película

Enlaces de descarga

Rip de Bluray

Descargar Asalto a la Casa de Moneda (2021) PLACEBO Full HD 1080p Latino




Aportes de DPeliculasHDmega la pass es:dpeliculashdmega.org Aportes de CinemaniaHD la pass es:cinemaniahdd.com

Películas relacionadas

Asalto a la Casa de Moneda (2021) PLACEBO Full HD 1080p Latino pelicula full hd, Asalto a la Casa de Moneda (2021) PLACEBO Full HD 1080p Latino mega latino, Asalto a la Casa de Moneda (2021) PLACEBO Full HD 1080p Latino 4k latino, Asalto a la Casa de Moneda (2021) PLACEBO Full HD 1080p Latino pelicula completa, Asalto a la Casa de Moneda (2021) PLACEBO Full HD 1080p Latino descargar gratis, descargar Asalto a la Casa de Moneda (2021) PLACEBO Full HD 1080p Latino pelicula latino, Asalto a la Casa de Moneda (2021) PLACEBO Full HD 1080p Latino 1 link mega, Asalto a la Casa de Moneda (2021) PLACEBO Full HD 1080p Latino 1 link google drive, Asalto a la Casa de Moneda (2021) PLACEBO Full HD 1080p Latino hd 1080p latino.
Comentarios 1
  • ocpgaiden - 19 octubre, 2021

    Gracias y saludos