×

¿Problemas para descargar con Mozilla, EDGE? Deshabilita la opción "Abrir vinculos en una pestaña nueva" tal como lo muestra ésta imagen.

Arthur: Una Amistad sin Limites (2024) REMUX 1080p Latino

61 vistas

Información de Arthur: Una Amistad sin Limites (2024) REMUX 1080p Latino

Datos de la película

  • Calidad: Full 1080p
  • Audio: Se especifica abajo de la Sinopsis
  • Subtitulos: Español Latino PGS - Ingles PGS
  • Resolución: 1920x1080p
  • Formato: MKV
  • Codec: H.264
  • Encoder: Melkor
  • Mediainfo: Clic para Mostrar Datos Ver
  • Arthur The King (2024) REMUX 1080p Latino.mkv
    Format                      : Matroska
    Format version              : Version 4
    File size                   : 23.2 GiB
    Duration                    : 1 h 47 min
    Overall bit rate mode       : Variable
    Overall bit rate            : 31.1 Mb/s
    Movie name                  : Arthur The King (2024) CinemaniaHDD.Net
    Encoded date                : UTC 2024-05-21 03:40:19
    Writing application         : mkvmerge v56.1.0 ('My Friend') 64-bit
    Writing library             : libebml v1.4.2 + libmatroska v1.6.4
    Attachments                 : CINEMANIAHD.png
    Site                        : CinemaniaHDD.Net
    Uploader                    : Melkor

    Video
    ID                          : 1
    ID in the original source m : 4113 (0x1011)
    Format                      : AVC
    Format/Info                 : Advanced Video Codec
    Format profile              : High@L4.1
    Format settings             : CABAC / 4 Ref Frames
    Format settings, CABAC      : Yes
    Format settings, Reference  : 4 frames
    Codec ID                    : V_MPEG4/ISO/AVC
    Duration                    : 1 h 47 min
    Bit rate mode               : Variable
    Bit rate                    : 26.0 Mb/s
    Maximum bit rate            : 35.0 Mb/s
    Width                       : 1 920 pixels
    Height                      : 1 080 pixels
    Display aspect ratio        : 16:9
    Frame rate mode             : Constant
    Frame rate                  : 23.976 (24000/1001) FPS
    Standard                    : NTSC
    Color space                 : YUV
    Chroma subsampling          : 4:2:0
    Bit depth                   : 8 bits
    Scan type                   : Progressive
    Bits/(Pixel*Frame)          : 0.523
    Stream size                 : 19.4 GiB (84%)
    Title                       : REMUX HD1080p [CinemaniaHDD]
    Default                     : Yes
    Forced                      : No
    Color range                 : Limited
    Color primaries             : BT.709
    Transfer characteristics    : BT.709
    Matrix coefficients         : BT.709
    Original source medium      : Blu-ray

    Audio #1
    ID                          : 2
    Format                      : AC-3
    Format/Info                 : Audio Coding 3
    Commercial name             : Dolby Digital
    Codec ID                    : A_AC3
    Duration                    : 1 h 47 min
    Bit rate mode               : Constant
    Bit rate                    : 384 kb/s
    Channel(s)                  : 6 channels
    Channel layout              : L R C LFE Ls Rs
    Sampling rate               : 48.0 kHz
    Frame rate                  : 31.250 FPS (1536 SPF)
    Compression mode            : Lossy
    Stream size                 : 294 MiB (1%)
    Title                       : Español Latino [CinemaniaHDD]
    Language                    : Spanish
    Service kind                : Complete Main
    Default                     : Yes
    Forced                      : No

    Audio #2
    ID                          : 3
    ID in the original source m : 4352 (0x1100)
    Format                      : MLP FBA 16-ch
    Format/Info                 : Meridian Lossless Packing FBA with 16-channel presentation
    Commercial name             : Dolby TrueHD with Dolby Atmos
    Codec ID                    : A_TRUEHD
    Duration                    : 1 h 47 min
    Bit rate mode               : Variable
    Bit rate                    : 4 219 kb/s
    Maximum bit rate            : 6 183 kb/s
    Channel(s)                  : 8 channels
    Channel layout              : L R C LFE Ls Rs Lb Rb
    Sampling rate               : 48.0 kHz
    Frame rate                  : 1 200.000 FPS (40 SPF)
    Compression mode            : Lossless
    Stream size                 : 3.15 GiB (14%)
    Title                       : Ingles [CinemaniaHDD]
    Language                    : English
    Default                     : No
    Forced                      : No
    Original source medium      : Blu-ray
    Number of dynamic objects   : 11
    Bed channel count           : 1 channel
    Bed channel configuration   : LFE

    Audio #3
    ID                          : 4
    ID in the original source m : 4352 (0x1100)
    Format                      : AC-3
    Format/Info                 : Audio Coding 3
    Commercial name             : Dolby Digital
    Codec ID                    : A_AC3
    Duration                    : 1 h 47 min
    Bit rate mode               : Constant
    Bit rate                    : 384 kb/s
    Channel(s)                  : 6 channels
    Channel layout              : L R C LFE Ls Rs
    Sampling rate               : 48.0 kHz
    Frame rate                  : 31.250 FPS (1536 SPF)
    Compression mode            : Lossy
    Stream size                 : 294 MiB (1%)
    Title                       : Ingles AC3 [CinemaniaHDD]
    Language                    : English
    Service kind                : Complete Main
    Default                     : No
    Forced                      : No
    Original source medium      : Blu-ray

    Text #1
    ID                          : 5
    ID in the original source m : 4609 (0x1201)
    Format                      : PGS
    Muxing mode                 : zlib
    Codec ID                    : S_HDMV/PGS
    Codec ID/Info               : Picture based subtitle format used on BDs/HD-DVDs
    Duration                    : 1 h 45 min
    Bit rate                    : 39.1 kb/s
    Count of elements           : 3148
    Stream size                 : 29.6 MiB (0%)
    Title                       : Español-PGS [CinemaniaHDD]
    Language                    : Spanish
    Default                     : No
    Forced                      : No
    Original source medium      : Blu-ray

    Text #2
    ID                          : 6
    ID in the original source m : 4608 (0x1200)
    Format                      : PGS
    Muxing mode                 : zlib
    Codec ID                    : S_HDMV/PGS
    Codec ID/Info               : Picture based subtitle format used on BDs/HD-DVDs
    Duration                    : 1 h 45 min
    Bit rate                    : 47.4 kb/s
    Count of elements           : 3626
    Stream size                 : 35.8 MiB (0%)
    Title                       : Ingles-PGS [CinemaniaHDD]
    Language                    : English
    Default                     : No
    Forced                      : No
    Original source medium      : Blu-ray

    Text #3
    ID                          : 7
    Format                      : UTF-8
    Codec ID                    : S_TEXT/UTF8
    Codec ID/Info               : UTF-8 Plain Text
    Duration                    : 1 h 38 min
    Bit rate                    : 2 b/s
    Count of elements           : 49
    Stream size                 : 1.71 KiB (0%)
    Title                       : Forzados-SRT [CinemaniaHDD]
    Language                    : Spanish
    Default                     : Yes
    Forced                      : No

    Text #4
    ID                          : 8
    Format                      : UTF-8
    Codec ID                    : S_TEXT/UTF8
    Codec ID/Info               : UTF-8 Plain Text
    Duration                    : 1 h 41 min
    Bit rate                    : 79 b/s
    Count of elements           : 1875
    Stream size                 : 58.7 KiB (0%)
    Title                       : Español-SRT [CinemaniaHDD]
    Language                    : Spanish
    Default                     : No
    Forced                      : No

    Menu
    00:00:00.000                : Chapter 01
    00:03:26.206                : Chapter 02
    00:09:29.569                : Chapter 03
    00:19:48.187                : Chapter 04
    00:26:08.567                : Chapter 05
    00:32:27.946                : Chapter 06
    00:37:29.247                : Chapter 07
    00:45:23.721                : Chapter 08
    00:56:49.614                : Chapter 09
    01:03:10.995                : Chapter 10
    01:13:16.392                : Chapter 11
    01:19:46.782                : Chapter 12
    01:24:11.046                : Chapter 13
    01:29:51.386                : Chapter 14
    01:37:04.068                : Chapter 15
    01:40:09.003                : Chapter 16

  • Peso: 23.2 GiB

Sinopsis

Descargar Arthur: Una Amistad sin Limites (2024) REMUX 1080p Latino. Mikael Lindnord, el capitán del equipo sueco de atletismo de aventura, tuvo un extraño encuentro durante la carrera de 400 millas en la jungla ecuatoriana, cuando en su camino se cruzó un perro callejero. Tras el momento en el que Lindnord le alimentó, el perro le siguió por el resto del recorrido, haciendo incluso los tramos más complicados del planeta. Tras finalizar la carrera, Lindnord decidió adoptar al perro, llamarlo Arthur y llevarlo con él a Suecia.

Español Latino AC3 5.1 BD – Ingles TrueHD 7.1 & AC3 5.1 BD

Ficha técnica

Video trailer de la película

Enlaces de descarga

Rip de Bluray

Descargar Arthur: Una Amistad sin Limites (2024) REMUX 1080p Latino




Aportes de DPeliculasHDmega la pass es:dpeliculashdmega.org Aportes de CinemaniaHD la pass es:cinemaniahdd.com Aportes recientes:cinemaniahdd.net
Guardado en : Aventura , Drama , Remux

Películas relacionadas

descargar Arthur: Una Amistad sin Limites (2024) REMUX 1080p Latino Full 1080p 1080p gratis, Arthur: Una Amistad sin Limites (2024) REMUX 1080p Latino Full 1080p mega 1 link, Arthur: Una Amistad sin Limites (2024) REMUX 1080p Latino Full 1080p pelicula completa, descargar Arthur: Una Amistad sin Limites (2024) REMUX 1080p Latino Full 1080p gratis en mega.

Arthur: Una Amistad sin Limites (2024) REMUX 1080p Latino pelicula full hd, Arthur: Una Amistad sin Limites (2024) REMUX 1080p Latino mega latino, Arthur: Una Amistad sin Limites (2024) REMUX 1080p Latino 4k latino, Arthur: Una Amistad sin Limites (2024) REMUX 1080p Latino pelicula completa, Arthur: Una Amistad sin Limites (2024) REMUX 1080p Latino descargar gratis, descargar Arthur: Una Amistad sin Limites (2024) REMUX 1080p Latino pelicula latino, Arthur: Una Amistad sin Limites (2024) REMUX 1080p Latino 1 link mega, Arthur: Una Amistad sin Limites (2024) REMUX 1080p Latino 1 link google drive, Arthur: Una Amistad sin Limites (2024) REMUX 1080p Latino hd 1080p latino.
Comentarios 0