×

¿Problemas para descargar con Mozilla, EDGE? Deshabilita la opción "Abrir vinculos en una pestaña nueva" tal como lo muestra ésta imagen.

Arthur: Una Amistad sin Limites (2024) HD 1080p Latino

66 vistas

Información de Arthur: Una Amistad sin Limites (2024) HD 1080p Latino

Datos de la película

  • Calidad: 1080p
  • Audio: Español Latino AC3 5.1 BLURAY - Ingles AC3 5.1 BLURAY
  • Subtitulos: Español Latino SRT- FORZADOS SRT
  • Resolución: 1920x800p
  • Formato: MKV
  • Codec: H.264
  • Encoder: Melkor
  • Mediainfo: Clic para Mostrar Datos Ver
  • Arthur The King (2024) HD 1080p Latino.mkv
    Format                      : Matroska
    Format version              : Version 4
    File size                   : 3.12 GiB
    Duration                    : 1 h 47 min
    Overall bit rate            : 4 172 kb/s
    Movie name                  : Arthur The King (2024) CinemaniaHDD.Net
    Encoded date                : UTC 2024-05-21 03:48:24
    Writing application         : mkvmerge v56.1.0 ('My Friend') 64-bit
    Writing library             : libebml v1.4.2 + libmatroska v1.6.4
    Attachments                 : CINEMANIAHD.png
    Site                        : CinemaniaHDD.Net
    Uploader                    : Melkor

    Video
    ID                          : 1
    Format                      : AVC
    Format/Info                 : Advanced Video Codec
    Format profile              : High@L4.1
    Format settings             : CABAC / 5 Ref Frames
    Format settings, CABAC      : Yes
    Format settings, Reference  : 5 frames
    Codec ID                    : V_MPEG4/ISO/AVC
    Duration                    : 1 h 47 min
    Bit rate                    : 3 500 kb/s
    Width                       : 1 920 pixels
    Height                      : 800 pixels
    Display aspect ratio        : 2.40:1
    Frame rate mode             : Constant
    Frame rate                  : 23.976 (24000/1001) FPS
    Color space                 : YUV
    Chroma subsampling          : 4:2:0
    Bit depth                   : 8 bits
    Scan type                   : Progressive
    Bits/(Pixel*Frame)          : 0.095
    Stream size                 : 2.50 GiB (80%)
    Title                       : HD1080p [CinemaniaHDD]
    Writing library             : x264 core 163 r3059 b684ebe0
    Encoding settings           : cabac=1 / ref=5 / deblock=1:-1:-1 / analyse=0x3:0x133 / me=umh / subme=9 / psy=1 / psy_rd=1.00:0.15 / mixed_ref=1 / me_range=16 / chroma_me=1 / trellis=2 / 8x8dct=1 / cqm=0 / deadzone=21,11 / fast_pskip=1 / chroma_qp_offset=-3 / threads=24 / lookahead_threads=2 / sliced_threads=0 / nr=0 / decimate=1 / interlaced=0 / bluray_compat=0 / constrained_intra=0 / bframes=3 / b_pyramid=2 / b_adapt=2 / b_bias=0 / direct=3 / weightb=1 / open_gop=0 / weightp=2 / keyint=240 / keyint_min=24 / scenecut=40 / intra_refresh=0 / rc_lookahead=60 / rc=abr / mbtree=1 / bitrate=3500 / ratetol=1.0 / qcomp=0.60 / qpmin=0 / qpmax=69 / qpstep=4 / vbv_maxrate=62500 / vbv_bufsize=78125 / nal_hrd=none / filler=0 / ip_ratio=1.40 / aq=1:1.00
    Default                     : Yes
    Forced                      : Yes
    Color range                 : Limited
    Color primaries             : BT.709
    Transfer characteristics    : BT.709
    Matrix coefficients         : BT.709

    Audio #1
    ID                          : 2
    Format                      : AC-3
    Format/Info                 : Audio Coding 3
    Commercial name             : Dolby Digital
    Codec ID                    : A_AC3
    Duration                    : 1 h 47 min
    Bit rate mode               : Constant
    Bit rate                    : 384 kb/s
    Channel(s)                  : 6 channels
    Channel layout              : L R C LFE Ls Rs
    Sampling rate               : 48.0 kHz
    Frame rate                  : 31.250 FPS (1536 SPF)
    Compression mode            : Lossy
    Delay relative to video     : -5 ms
    Stream size                 : 294 MiB (9%)
    Title                       : Español Latino [CinemaniaHDD]
    Language                    : Spanish
    Service kind                : Complete Main
    Default                     : Yes
    Forced                      : No

    Audio #2
    ID                          : 3
    Format                      : AC-3
    Format/Info                 : Audio Coding 3
    Commercial name             : Dolby Digital
    Codec ID                    : A_AC3
    Duration                    : 1 h 47 min
    Bit rate mode               : Constant
    Bit rate                    : 448 kb/s
    Channel(s)                  : 6 channels
    Channel layout              : L R C LFE Ls Rs
    Sampling rate               : 48.0 kHz
    Frame rate                  : 31.250 FPS (1536 SPF)
    Compression mode            : Lossy
    Delay relative to video     : -5 ms
    Stream size                 : 343 MiB (11%)
    Title                       : Ingles [CinemaniaHDD]
    Language                    : English
    Service kind                : Complete Main
    Default                     : No
    Forced                      : No

    Text #1
    ID                          : 4
    Format                      : UTF-8
    Codec ID                    : S_TEXT/UTF8
    Codec ID/Info               : UTF-8 Plain Text
    Duration                    : 1 h 38 min
    Bit rate                    : 2 b/s
    Count of elements           : 49
    Stream size                 : 1.71 KiB (0%)
    Title                       : Forzados-SRT [CinemaniaHDD]
    Language                    : Spanish
    Default                     : Yes
    Forced                      : No

    Text #2
    ID                          : 5
    Format                      : UTF-8
    Codec ID                    : S_TEXT/UTF8
    Codec ID/Info               : UTF-8 Plain Text
    Duration                    : 1 h 41 min
    Bit rate                    : 79 b/s
    Count of elements           : 1875
    Stream size                 : 58.7 KiB (0%)
    Title                       : Español-SRT [CinemaniaHDD]
    Language                    : Spanish
    Default                     : No
    Forced                      : No

    Menu
    00:00:00.000                : Chapter 01
    00:03:26.206                : Chapter 02
    00:09:29.569                : Chapter 03
    00:19:48.187                : Chapter 04
    00:26:08.567                : Chapter 05
    00:32:27.946                : Chapter 06
    00:37:29.247                : Chapter 07
    00:45:23.721                : Chapter 08
    00:56:49.614                : Chapter 09
    01:03:10.995                : Chapter 10
    01:13:16.392                : Chapter 11
    01:19:46.782                : Chapter 12
    01:24:11.046                : Chapter 13
    01:29:51.386                : Chapter 14
    01:37:04.068                : Chapter 15
    01:40:09.003                : Chapter 16

  • Peso: 3.12 GiB

Sinopsis

Descargar Arthur: Una Amistad sin Limites (2024) HD 1080p Latino. Mikael Lindnord, el capitán del equipo sueco de atletismo de aventura, tuvo un extraño encuentro durante la carrera de 400 millas en la jungla ecuatoriana, cuando en su camino se cruzó un perro callejero. Tras el momento en el que Lindnord le alimentó, el perro le siguió por el resto del recorrido, haciendo incluso los tramos más complicados del planeta. Tras finalizar la carrera, Lindnord decidió adoptar al perro, llamarlo Arthur y llevarlo con él a Suecia.

Ficha técnica

Video trailer de la película

Enlaces de descarga

Rip de Bluray

Descargar Arthur: Una Amistad sin Limites (2024) HD 1080p Latino




Aportes de DPeliculasHDmega la pass es:dpeliculashdmega.org Aportes de CinemaniaHD la pass es:cinemaniahdd.com Aportes recientes:cinemaniahdd.net
Guardado en : Aventura , Drama , HD 1080p

Películas relacionadas

descargar Arthur: Una Amistad sin Limites (2024) HD 1080p Latino 1080p 1080p gratis, Arthur: Una Amistad sin Limites (2024) HD 1080p Latino 1080p mega 1 link, Arthur: Una Amistad sin Limites (2024) HD 1080p Latino 1080p pelicula completa, descargar Arthur: Una Amistad sin Limites (2024) HD 1080p Latino 1080p gratis en mega.

Arthur: Una Amistad sin Limites (2024) HD 1080p Latino pelicula full hd, Arthur: Una Amistad sin Limites (2024) HD 1080p Latino mega latino, Arthur: Una Amistad sin Limites (2024) HD 1080p Latino 4k latino, Arthur: Una Amistad sin Limites (2024) HD 1080p Latino pelicula completa, Arthur: Una Amistad sin Limites (2024) HD 1080p Latino descargar gratis, descargar Arthur: Una Amistad sin Limites (2024) HD 1080p Latino pelicula latino, Arthur: Una Amistad sin Limites (2024) HD 1080p Latino 1 link mega, Arthur: Una Amistad sin Limites (2024) HD 1080p Latino 1 link google drive, Arthur: Una Amistad sin Limites (2024) HD 1080p Latino hd 1080p latino.
Comentarios 0