×

¿Problemas para descargar con Mozilla, EDGE? Deshabilita la opción "Abrir vinculos en una pestaña nueva" tal como lo muestra ésta imagen.

Artemis Fowl (2020) WEB-DL 4K-HDR 2160p Latino

330 vistas

Información de Artemis Fowl (2020) WEB-DL 4K-HDR 2160p Latino

Datos de la película

  • Calidad: 4K HDR
  • Audio: Se especifica abajo de la Sinopsis
  • Subtitulos: Español Latino SRT- FORZADOS SRT
  • Resolución: 3840x2160
  • Formato: MKV
  • Codec: H.264
  • Encoder: cinemaniahdd
  • Mediainfo: Clic para Mostrar Datos Ver
  • Artemis Fowl (2020) WEB-DL 4K-HDR 2160p Latino [CNMNHDD].mkv
    Format                      : Matroska
    Format version              : Version 4
    File size                   : 11.7 GiB
    Duration                    : 1 h 34 min
    Overall bit rate            : 17.7 Mb/s
    Movie name                  : Artemis Fowl (2020) - CinemaniaHDD.Net
    Encoded date                : UTC 2020-10-09 01:49:40
    Writing application         : mkvmerge v51.0.0 ('I Wish') 64-bit
    Writing library             : libebml v1.4.0 + libmatroska v1.6.2

    Video
    ID                          : 1
    Format                      : HEVC
    Format/Info                 : High Efficiency Video Coding
    Format profile              : Main 10@L5@High
    HDR format                  : SMPTE ST 2086, HDR10 compatible
    Codec ID                    : V_MPEGH/ISO/HEVC
    Duration                    : 1 h 34 min
    Bit rate                    : 16.4 Mb/s
    Width                       : 3 840 pixels
    Height                      : 2 160 pixels
    Display aspect ratio        : 16:9
    Frame rate mode             : Constant
    Frame rate                  : 23.976 (24000/1001) FPS
    Color space                 : YUV
    Chroma subsampling          : 4:2:0
    Bit depth                   : 10 bits
    Bits/(Pixel*Frame)          : 0.083
    Stream size                 : 10.8 GiB (93%)
    Title                       : CinemaniaHDD
    Default                     : Yes
    Forced                      : No
    Color range                 : Limited
    Color primaries             : BT.2020
    Transfer characteristics    : PQ
    Matrix coefficients         : BT.2020 non-constant
    Mastering display color pri : Display P3
    Mastering display luminance : min: 0.0000 cd/m2, max: 1000 cd/m2

    Audio #1
    ID                          : 2
    Format                      : AC-3
    Format/Info                 : Audio Coding 3
    Commercial name             : Dolby Digital
    Codec ID                    : A_AC3
    Duration                    : 1 h 34 min
    Bit rate mode               : Constant
    Bit rate                    : 384 kb/s
    Channel(s)                  : 6 channels
    Channel layout              : L R C LFE Ls Rs
    Sampling rate               : 48.0 kHz
    Frame rate                  : 31.250 FPS (1536 SPF)
    Compression mode            : Lossy
    Stream size                 : 259 MiB (2%)
    Title                       : Español latino - AC3 [CinemaniaHDD]
    Language                    : Spanish
    Service kind                : Complete Main
    Default                     : Yes
    Forced                      : No

    Audio #2
    ID                          : 3
    Format                      : E-AC-3
    Format/Info                 : Enhanced AC-3
    Commercial name             : Dolby Digital Plus
    Codec ID                    : A_EAC3
    Duration                    : 1 h 34 min
    Bit rate mode               : Constant
    Bit rate                    : 256 kb/s
    Channel(s)                  : 6 channels
    Channel layout              : L R C LFE Ls Rs
    Sampling rate               : 48.0 kHz
    Frame rate                  : 31.250 FPS (1536 SPF)
    Compression mode            : Lossy
    Stream size                 : 173 MiB (1%)
    Title                       : Español latino - E-AC3 [CinemaniaHDD]
    Language                    : Spanish
    Service kind                : Complete Main
    Default                     : No
    Forced                      : No

    Audio #3
    ID                          : 4
    Format                      : E-AC-3
    Format/Info                 : Enhanced AC-3
    Commercial name             : Dolby Digital Plus
    Codec ID                    : A_EAC3
    Duration                    : 1 h 34 min
    Bit rate mode               : Constant
    Bit rate                    : 256 kb/s
    Channel(s)                  : 6 channels
    Channel layout              : L R C LFE Ls Rs
    Sampling rate               : 48.0 kHz
    Frame rate                  : 31.250 FPS (1536 SPF)
    Compression mode            : Lossy
    Stream size                 : 173 MiB (1%)
    Title                       : Inglés - E-AC3 [CinemaniaHDD]
    Language                    : English
    Service kind                : Complete Main
    Default                     : No
    Forced                      : No

    Audio #4
    ID                          : 5
    Format                      : AC-3
    Format/Info                 : Audio Coding 3
    Commercial name             : Dolby Digital
    Codec ID                    : A_AC3
    Duration                    : 1 h 34 min
    Bit rate mode               : Constant
    Bit rate                    : 384 kb/s
    Channel(s)                  : 6 channels
    Channel layout              : L R C LFE Ls Rs
    Sampling rate               : 48.0 kHz
    Frame rate                  : 31.250 FPS (1536 SPF)
    Compression mode            : Lossy
    Stream size                 : 259 MiB (2%)
    Title                       : Inglés - AC3 [CinemaniaHDD]
    Language                    : English
    Service kind                : Complete Main
    Default                     : No
    Forced                      : No

    Text #1
    ID                          : 6
    Format                      : UTF-8
    Codec ID                    : S_TEXT/UTF8
    Codec ID/Info               : UTF-8 Plain Text
    Duration                    : 35 min 5 s
    Bit rate                    : 2 b/s
    Count of elements           : 17
    Stream size                 : 731 Bytes (0%)
    Title                       : Forzados [CinemaniaHDD]
    Language                    : Spanish
    Default                     : Yes
    Forced                      : Yes

    Text #2
    ID                          : 7
    Format                      : UTF-8
    Codec ID                    : S_TEXT/UTF8
    Codec ID/Info               : UTF-8 Plain Text
    Duration                    : 1 h 27 min
    Bit rate                    : 74 b/s
    Count of elements           : 1364
    Stream size                 : 47.8 KiB (0%)
    Title                       : Español latino [CinemaniaHDD]
    Language                    : Spanish
    Default                     : No
    Forced                      : No

    Text #3
    ID                          : 8
    Format                      : UTF-8
    Codec ID                    : S_TEXT/UTF8
    Codec ID/Info               : UTF-8 Plain Text
    Duration                    : 1 h 27 min
    Bit rate                    : 63 b/s
    Count of elements           : 1515
    Stream size                 : 40.7 KiB (0%)
    Title                       : Inglés [CinemaniaHDD]
    Language                    : English
    Default                     : No
    Forced                      : No

     

  • Peso: 11.7 GiB

Sinopsis

La historia de ‘Artemis Fowl’ es la de un niño de 12 años de edad que está a punto de arrebatar el poder al mundo subterráneo. Lo que él todavía no sabe es que sus habitantes: hadas, duendes, elfos… no son las criaturas maravillosas que siempre hemos imaginado y no van a consentir que un humano conozca sus secretos más sagrados. Como él, van armados hasta las barbas y conocen las últimas tecnologías: se prepara un trepidante duelo que puede provocar una auténtica guerra entre las especies del planeta.

Español Latino E-AC3 5.1 + AC3 WEB-DL – Ingles E-AC3 5.1 + AC3 WEB-DL

Ficha técnica

Video trailer de la película

Enlaces de descarga

Rip de Bluray

Descargar Artemis Fowl (2020) WEB-DL 4K-HDR 2160p Latino




Aportes de DPeliculasHDmega la pass es:dpeliculashdmega.org Aportes de CinemaniaHD la pass es:cinemaniahdd.com

Películas relacionadas

  • Abracadabra 2 (2022) D+ WEB-DL 4K UHD HDR Latino

    Abracadabra 2 (2022) D+ WEB-DL 4K UHD HDR Latino

    2022
    Abracadabra 2 (2022) D+ WEB-DL 4K UHD HDR Latino

    1h 45m 2022

    Descargar Abracadabra 2 (2022) D+ WEB-DL 4K UHD HDR Latino. Han pasado 29 años desde que alguien encendió...

    Director: Anne Fletcher

    Género: 4K HDR

    Actores: Whitney Peak

  • Abracadabra 2 (2022) D+ WEB-DL 1080p Latino

    Abracadabra 2 (2022) D+ WEB-DL 1080p Latino

    2022
    Abracadabra 2 (2022) D+ WEB-DL 1080p Latino

    1h 45m 2022

    Descargar Abracadabra 2 (2022) D+ WEB-DL 1080p Latino. Han pasado 29 años desde que alguien encendió...

    Director: Anne Fletcher

    Género: Comedia

    Actores: Whitney Peak

  • Wire Room (2022) HD 1080p Latino

    Wire Room (2022) HD 1080p Latino

    2022
    Wire Room (2022) HD 1080p Latino

    1h 37m 2022

    Descargar Wire Room (2022) HD 1080p Latino. Mientras está de servicio en la sala de cables, un agente...

    Director: Matt Eskandari

    Género: Acción

    Actores: Texas Battle

descargar Artemis Fowl (2020) WEB-DL 4K-HDR 2160p Latino 4K HDR 1080p gratis, Artemis Fowl (2020) WEB-DL 4K-HDR 2160p Latino 4K HDR mega 1 link, Artemis Fowl (2020) WEB-DL 4K-HDR 2160p Latino 4K HDR pelicula completa, descargar Artemis Fowl (2020) WEB-DL 4K-HDR 2160p Latino 4K HDR gratis en mega.

Artemis Fowl (2020) WEB-DL 4K-HDR 2160p Latino pelicula full hd, Artemis Fowl (2020) WEB-DL 4K-HDR 2160p Latino mega latino, Artemis Fowl (2020) WEB-DL 4K-HDR 2160p Latino 4k latino, Artemis Fowl (2020) WEB-DL 4K-HDR 2160p Latino pelicula completa, Artemis Fowl (2020) WEB-DL 4K-HDR 2160p Latino descargar gratis, descargar Artemis Fowl (2020) WEB-DL 4K-HDR 2160p Latino pelicula latino, Artemis Fowl (2020) WEB-DL 4K-HDR 2160p Latino 1 link mega, Artemis Fowl (2020) WEB-DL 4K-HDR 2160p Latino 1 link google drive, Artemis Fowl (2020) WEB-DL 4K-HDR 2160p Latino hd 1080p latino.
Comentarios 0