×

¿Problemas para descargar con Mozilla, EDGE? Deshabilita la opción "Abrir vinculos en una pestaña nueva" tal como lo muestra ésta imagen.

Around the World in 80 Days (2021) Primera Temporada DTVGO WEB-DL 1080p Latino

63 vistas

Información de Around the World in 80 Days (2021) Primera Temporada DTVGO WEB-DL 1080p Latino

Datos de la película

  • Calidad: 1080p
  • Audio: Español Latino AC3 2.0 WEB-DL - Ingles AC3 2.0 WEB-DL
  • Subtitulos: Español Latino SRT- FORZADOS SRT
  • Resolución: 1920x1080
  • Formato: MKV
  • Codec: H.264
  • Encoder: cinemaniahdd
  • Mediainfo: Clic para Mostrar Datos Ver
  • Around the World in 80 Days T01E01 DTVGO WEB-DL 1080p Latino [CNMNHDD].mkv
    Format                      : Matroska
    Format version              : Version 4
    File size                   : 2.36 GiB
    Duration                    : 49 min 48 s
    Overall bit rate            : 6 770 kb/s
    Movie name                  : La vuelta al mundo en 80 dias S01E01 - Episodio 1 [1080p] - CinemaniaHDD.Net
    Encoded date                : UTC 2022-08-25 23:40:24
    Writing application         : mkvmerge v56.1.0 ('My Friend') 64-bit
    Writing library             : libebml v1.4.2 + libmatroska v1.6.4

    Video
    ID                          : 1
    Format                      : AVC
    Format/Info                 : Advanced Video Codec
    Format profile              : High@L4
    Format settings             : 1 Ref Frames
    Format settings, CABAC      : No
    Format settings, Reference  : 1 frame
    Codec ID                    : V_MPEG4/ISO/AVC
    Duration                    : 49 min 48 s
    Bit rate mode               : Constant
    Bit rate                    : 6 000 kb/s
    Width                       : 1 920 pixels
    Height                      : 1 080 pixels
    Display aspect ratio        : 16:9
    Frame rate mode             : Constant
    Frame rate                  : 29.970 (30000/1001) FPS
    Standard                    : Component
    Color space                 : YUV
    Chroma subsampling          : 4:2:0
    Bit depth                   : 8 bits
    Scan type                   : Progressive
    Bits/(Pixel*Frame)          : 0.097
    Stream size                 : 2.09 GiB (89%)
    Title                       : CinemaniaHDD
    Default                     : Yes
    Forced                      : No
    Color range                 : Limited
    Color primaries             : BT.601 NTSC
    Transfer characteristics    : BT.601
    Matrix coefficients         : BT.601

    Audio #1
    ID                          : 2
    Format                      : AC-3
    Format/Info                 : Audio Coding 3
    Commercial name             : Dolby Digital
    Codec ID                    : A_AC3
    Duration                    : 49 min 48 s
    Bit rate mode               : Constant
    Bit rate                    : 384 kb/s
    Channel(s)                  : 2 channels
    Channel layout              : L R
    Sampling rate               : 48.0 kHz
    Frame rate                  : 31.250 FPS (1536 SPF)
    Compression mode            : Lossy
    Stream size                 : 137 MiB (6%)
    Title                       : Español latino [CinemaniaHDD]
    Language                    : Spanish
    Service kind                : Complete Main
    Default                     : Yes
    Forced                      : No

    Audio #2
    ID                          : 3
    Format                      : E-AC-3
    Format/Info                 : Enhanced AC-3
    Commercial name             : Dolby Digital Plus
    Codec ID                    : A_EAC3
    Duration                    : 49 min 48 s
    Bit rate mode               : Constant
    Bit rate                    : 192 kb/s
    Channel(s)                  : 2 channels
    Channel layout              : L R
    Sampling rate               : 48.0 kHz
    Frame rate                  : 31.250 FPS (1536 SPF)
    Compression mode            : Lossy
    Stream size                 : 68.4 MiB (3%)
    Title                       : Español latino / E-AC3 [CinemaniaHDD]
    Language                    : Spanish
    Service kind                : Complete Main
    Default                     : No
    Forced                      : No

    Audio #3
    ID                          : 4
    Format                      : E-AC-3
    Format/Info                 : Enhanced AC-3
    Commercial name             : Dolby Digital Plus
    Codec ID                    : A_EAC3
    Duration                    : 49 min 48 s
    Bit rate mode               : Constant
    Bit rate                    : 192 kb/s
    Channel(s)                  : 2 channels
    Channel layout              : L R
    Sampling rate               : 48.0 kHz
    Frame rate                  : 31.250 FPS (1536 SPF)
    Compression mode            : Lossy
    Stream size                 : 68.4 MiB (3%)
    Title                       : Inglés [CinemaniaHDD]
    Language                    : English
    Service kind                : Complete Main
    Default                     : No
    Forced                      : No

    Text #1
    ID                          : 5
    Format                      : UTF-8
    Codec ID                    : S_TEXT/UTF8
    Codec ID/Info               : UTF-8 Plain Text
    Duration                    : 42 min 49 s
    Bit rate                    : 0 b/s
    Count of elements           : 13
    Stream size                 : 321 Bytes (0%)
    Title                       : Forzados [CinemaniaHDD]
    Language                    : Spanish
    Default                     : Yes
    Forced                      : Yes

    Text #2
    ID                          : 6
    Format                      : UTF-8
    Codec ID                    : S_TEXT/UTF8
    Codec ID/Info               : UTF-8 Plain Text
    Duration                    : 48 min 41 s
    Bit rate                    : 54 b/s
    Count of elements           : 680
    Stream size                 : 19.4 KiB (0%)
    Title                       : Español latino [CinemaniaHDD]
    Language                    : Spanish
    Default                     : No
    Forced                      : No

     

  • Peso: 2.36 GiB Aprox ---- 20 GiB in 8 Chapters.

Sinopsis

En 1872, Phileas Fogg se siente incitado a apostar a que puede dar la vuelta al mundo en sólo 80 días, a pesar de que nunca antes había estado en el extranjero.

Ficha técnica

Video trailer de la película

Enlaces de descarga

Rip de Bluray

Descargar Around the World in 80 Days (2021) Primera Temporada DTVGO WEB-DL 1080p Latino




Aportes de DPeliculasHDmega la pass es:dpeliculashdmega.org Aportes de CinemaniaHD la pass es:cinemaniahdd.com
Guardado en : Action & Adventure , Familia , Series

Películas relacionadas

descargar Around the World in 80 Days (2021) Primera Temporada DTVGO WEB-DL 1080p Latino 1080p 1080p gratis, Around the World in 80 Days (2021) Primera Temporada DTVGO WEB-DL 1080p Latino 1080p mega 1 link, Around the World in 80 Days (2021) Primera Temporada DTVGO WEB-DL 1080p Latino 1080p serie completa, descargar Around the World in 80 Days (2021) Primera Temporada DTVGO WEB-DL 1080p Latino 1080p gratis en mega.

Around the World in 80 Days (2021) Primera Temporada DTVGO WEB-DL 1080p Latino pelicula full hd, Around the World in 80 Days (2021) Primera Temporada DTVGO WEB-DL 1080p Latino mega latino, Around the World in 80 Days (2021) Primera Temporada DTVGO WEB-DL 1080p Latino 4k latino, Around the World in 80 Days (2021) Primera Temporada DTVGO WEB-DL 1080p Latino pelicula completa, Around the World in 80 Days (2021) Primera Temporada DTVGO WEB-DL 1080p Latino descargar gratis, descargar Around the World in 80 Days (2021) Primera Temporada DTVGO WEB-DL 1080p Latino pelicula latino, Around the World in 80 Days (2021) Primera Temporada DTVGO WEB-DL 1080p Latino 1 link mega, Around the World in 80 Days (2021) Primera Temporada DTVGO WEB-DL 1080p Latino 1 link google drive, Around the World in 80 Days (2021) Primera Temporada DTVGO WEB-DL 1080p Latino hd 1080p latino.
Comentarios 2
  • marino - 05 septiembre, 2022

    genial gracias

  • perna - 05 septiembre, 2022

    gracias estaba esperando el ultimo capitulo