Army of the Dead (2021) NF WEB-DL 1080p Latino

144 vistas
1 estrella2 estrellas3 estrellas4 estrellas5 estrellas (2 votos, promedio: 5,00 de 5)
Cargando...

Información de Army of the Dead (2021) NF WEB-DL 1080p Latino

Datos de la película

  • Calidad: WEBDL
  • Audio: Español Latino AC3 5.1 Netflix - Ingles AC3 5.1 Netflix
  • Subtitulos: Español Latino SRT- FORZADOS SRT
  • Resolución: 1920x1080
  • Formato: MKV
  • Codec: H.264
  • Encoder: cinemaniahdd
  • Mediainfo: Clic para Mostrar Datos Ver
  • Army of the Dead (2021) NF WEB-DL 1080p Latino [CNMNHDD].mkv
    Format                      : Matroska
    Format version              : Version 4
    File size                   : 3.66 GiB
    Duration                    : 2 h 28 min
    Overall bit rate mode       : Variable
    Overall bit rate            : 3 534 kb/s
    Movie name                  : Army of the Dead (2021) - CinemaniaHDD.Net
    Encoded date                : UTC 2021-05-21 22:25:29
    Writing application         : mkvmerge v56.1.0 ('My Friend') 64-bit
    Writing library             : libebml v1.4.2 + libmatroska v1.6.4

    Video
    ID                          : 1
    Format                      : AVC
    Format/Info                 : Advanced Video Codec
    Format profile              : Main@L4
    Format settings             : CABAC / 3 Ref Frames
    Format settings, CABAC      : Yes
    Format settings, Reference  : 3 frames
    Codec ID                    : V_MPEG4/ISO/AVC
    Duration                    : 2 h 28 min
    Bit rate mode               : Variable
    Bit rate                    : 2 764 kb/s
    Nominal bit rate            : 1 997 kb/s
    Maximum bit rate            : 5 220 kb/s
    Width                       : 1 920 pixels
    Height                      : 1 080 pixels
    Display aspect ratio        : 16:9
    Frame rate mode             : Constant
    Frame rate                  : 24.000 FPS
    Color space                 : YUV
    Chroma subsampling          : 4:2:0
    Bit depth                   : 8 bits
    Scan type                   : Progressive
    Bits/(Pixel*Frame)          : 0.056
    Stream size                 : 2.86 GiB (78%)
    Title                       : CinemaniaHDD
    Writing library             : x264 core 148 r2722 1b0121b
    Encoding settings           : cabac=1 / ref=3 / deblock=1:0:0 / analyse=0x1:0x111 / me=umh / subme=10 / psy=1 / psy_rd=1.00:0.00 / mixed_ref=1 / me_range=24 / chroma_me=1 / trellis=2 / 8x8dct=0 / cqm=0 / deadzone=21,11 / fast_pskip=1 / chroma_qp_offset=-2 / threads=8 / lookahead_threads=1 / sliced_threads=0 / nr=0 / decimate=1 / interlaced=0 / bluray_compat=0 / stitchable=1 / constrained_intra=0 / bframes=2 / b_pyramid=0 / b_adapt=2 / b_bias=0 / direct=3 / weightb=1 / open_gop=0 / weightp=2 / keyint=250 / keyint_min=24 / scenecut=0 / intra_refresh=0 / rc_lookahead=48 / rc=2pass / mbtree=1 / bitrate=1997 / ratetol=1.0 / qcomp=0.50 / qpmin=6 / qpmax=51 / qpstep=4 / cplxblur=20.0 / qblur=0.5 / vbv_maxrate=5220 / vbv_bufsize=6960 / nal_hrd=vbr / filler=0 / ip_ratio=1.40 / aq=1:1.00
    Default                     : Yes
    Forced                      : No

    Audio #1
    ID                          : 2
    Format                      : AC-3
    Format/Info                 : Audio Coding 3
    Commercial name             : Dolby Digital
    Codec ID                    : A_AC3
    Duration                    : 2 h 28 min
    Bit rate mode               : Constant
    Bit rate                    : 384 kb/s
    Channel(s)                  : 6 channels
    Channel layout              : L R C LFE Ls Rs
    Sampling rate               : 48.0 kHz
    Frame rate                  : 31.250 FPS (1536 SPF)
    Compression mode            : Lossy
    Stream size                 : 408 MiB (11%)
    Title                       : Español latino [CinemaniaHDD]
    Language                    : Spanish
    Service kind                : Complete Main
    Default                     : Yes
    Forced                      : No

    Audio #2
    ID                          : 3
    Format                      : AC-3
    Format/Info                 : Audio Coding 3
    Commercial name             : Dolby Digital
    Codec ID                    : A_AC3
    Duration                    : 2 h 28 min
    Bit rate mode               : Constant
    Bit rate                    : 384 kb/s
    Channel(s)                  : 6 channels
    Channel layout              : L R C LFE Ls Rs
    Sampling rate               : 48.0 kHz
    Frame rate                  : 31.250 FPS (1536 SPF)
    Compression mode            : Lossy
    Stream size                 : 408 MiB (11%)
    Title                       : Inglés [CinemaniaHDD]
    Language                    : English
    Service kind                : Complete Main
    Default                     : No
    Forced                      : No

    Text #1
    ID                          : 4
    Format                      : UTF-8
    Codec ID                    : S_TEXT/UTF8
    Codec ID/Info               : UTF-8 Plain Text
    Duration                    : 2 h 25 min
    Bit rate                    : 0 b/s
    Count of elements           : 24
    Stream size                 : 587 Bytes (0%)
    Title                       : Forzados [CinemaniaHDD]
    Language                    : Spanish
    Default                     : Yes
    Forced                      : Yes

    Text #2
    ID                          : 5
    Format                      : UTF-8
    Codec ID                    : S_TEXT/UTF8
    Codec ID/Info               : UTF-8 Plain Text
    Duration                    : 2 h 26 min
    Bit rate                    : 37 b/s
    Count of elements           : 1421
    Stream size                 : 39.9 KiB (0%)
    Title                       : Español latino [CinemaniaHDD]
    Language                    : Spanish
    Default                     : No
    Forced                      : No

     

  • Peso: 3.66 GiB

Sinopsis

Un grupo de mercenarios decide llevar a cabo el mayor atraco que jamás se haya realizado en la ciudad de Las Vegas justo después de que se produzca una epidemia de muertos vivientes. Para ello tendrán que adentrarse en una zona de cuarentena, con los riesgos que ello conlleva.

Ficha técnica

Video trailer de la película

Enlaces de descarga

Rip de Bluray

Descargar Army of the Dead (2021) NF WEB-DL 1080p Latino




Aportes de DPeliculasHDmega la pass es:dpeliculashdmega.org Aportes de CinemaniaHD la pass es:cinemaniahdd.com
Guardado en : Acción , Netflix , Suspenso , Terror

Películas relacionadas

  • Hawkeye (2021) Temporada 1 Web-DL 4K UHD HDR Latino

    Hawkeye (2021) Temporada 1 Web-DL 4K UHD HDR Latino

    2021
    Hawkeye (2021) Temporada 1 Web-DL 4K UHD HDR Latino

    1.0 0h 0m 2021

    Descargar Hawkeye (2021) Temporada 1 Web-DL 4K UHD HDR Latino. "Hawkeye", de Marvel Studios, es una nueva...

    Director: Jonathan Igla

    Género: 4K HDR

    Actores: Zahn McClarnon

  • Hawkeye (2021) Temporada 1 WEB-DL 1080p Latino

    Hawkeye (2021) Temporada 1 WEB-DL 1080p Latino

    2021
    Hawkeye (2021) Temporada 1 WEB-DL 1080p Latino

    5.0 0h 0m 2021

    Descargar Hawkeye (2021) Temporada 1 WEB-DL 1080p Latino. "Hawkeye", de Marvel Studios, es una nueva...

    Director: Jonathan Igla

    Género: Acción

    Actores: Zahn McClarnon

  • Marcado por la muerte (2013) REMUX 1080p Latino

    Marcado por la muerte (2013) REMUX 1080p Latino

    2013
    Marcado por la muerte (2013) REMUX 1080p Latino

    0.0 1h 50m 2013

    Descargar Marcado por la muerte (2013) REMUX 1080p Latino. Victor (Colin Farrell) es la mano derecha...

    Director: Niels Arden Oplev

    Género: Acción

    Actores: William Zielinski

Army of the Dead (2021) NF WEB-DL 1080p Latino pelicula full hd, Army of the Dead (2021) NF WEB-DL 1080p Latino mega latino, Army of the Dead (2021) NF WEB-DL 1080p Latino 4k latino, Army of the Dead (2021) NF WEB-DL 1080p Latino pelicula completa, Army of the Dead (2021) NF WEB-DL 1080p Latino descargar gratis, descargar Army of the Dead (2021) NF WEB-DL 1080p Latino pelicula latino, Army of the Dead (2021) NF WEB-DL 1080p Latino 1 link mega, Army of the Dead (2021) NF WEB-DL 1080p Latino 1 link google drive, Army of the Dead (2021) NF WEB-DL 1080p Latino hd 1080p latino.
Comentarios 1
  • ocpgaiden - 21 mayo, 2021

    Gracias y saludos