×

¿Problemas para descargar con Mozilla, EDGE? Deshabilita la opción "Abrir vinculos en una pestaña nueva" tal como lo muestra ésta imagen.

Army of Darkness (1992) REMUX 1080p Latino – CMHDD

245 vistas

Información de Army of Darkness (1992) REMUX 1080p Latino – CMHDD

Datos de la película

  • Calidad: Full 1080p
  • Audio: Español Latino AC3 2.0 BLURAY - Ingles DTS 5.1 BLURAY
  • Subtitulos: Español Latino PGS
  • Resolución: 1920x1080p
  • Formato: MKV
  • Codec: H.264
  • Encoder: Dracarys
  • Mediainfo: Clic para Mostrar Datos Ver
  • Format                      : Matroska
    Format version              : Version 4
    File size                   : 17.6 GiB
    Duration                    : 1 h 20 min
    Overall bit rate mode       : Variable
    Overall bit rate            : 31.2 Mb/s
    Movie name                  : Army of Darkness (1992) REMUX 1080p Latino - CMHDD
    Encoded date                : UTC 2023-04-06 01:45:12
    Writing application         : mkvmerge v47.0.0 ('Black Flag') 64-bit
    Writing library             : libebml v1.3.10 + libmatroska v1.5.2
    Cover                       : Yes
    Attachments                 : cover.jpg

    Video
    ID                          : 1
    ID in the original source m : 4113 (0x1011)
    Format                      : VC-1
    Format profile              : Advanced@L3
    Codec ID                    : V_MS/VFW/FOURCC / WVC1
    Codec ID/Hint               : Microsoft
    Duration                    : 1 h 20 min
    Bit rate                    : 25.9 Mb/s
    Width                       : 1 920 pixels
    Height                      : 1 080 pixels
    Display aspect ratio        : 16:9
    Frame rate mode             : Constant
    Frame rate                  : 23.976 (24000/1001) FPS
    Color space                 : YUV
    Chroma subsampling          : 4:2:0
    Bit depth                   : 8 bits
    Scan type                   : Progressive
    Compression mode            : Lossy
    Bits/(Pixel*Frame)          : 0.521
    Stream size                 : 14.6 GiB (83%)
    Default                     : Yes
    Forced                      : No
    Original source medium      : Blu-ray

    Audio #1
    ID                          : 2
    ID in the original source m : 4352 (0x1100)
    Format                      : DTS XLL
    Format/Info                 : Digital Theater Systems
    Commercial name             : DTS-HD Master Audio
    Codec ID                    : A_DTS
    Duration                    : 1 h 20 min
    Bit rate mode               : Variable
    Bit rate                    : 4 277 kb/s
    Channel(s)                  : 6 channels
    Channel layout              : C L R Ls Rs LFE
    Sampling rate               : 48.0 kHz
    Frame rate                  : 93.750 FPS (512 SPF)
    Bit depth                   : 24 bits
    Compression mode            : Lossless
    Stream size                 : 2.42 GiB (14%)
    Language                    : English
    Default                     : No
    Forced                      : No
    Original source medium      : Blu-ray

    Audio #2
    ID                          : 3
    ID in the original source m : 4353 (0x1101)
    Format                      : AC-3
    Format/Info                 : Audio Coding 3
    Commercial name             : Dolby Digital
    Format settings             : Dolby Surround
    Codec ID                    : A_AC3
    Duration                    : 1 h 20 min
    Bit rate mode               : Constant
    Bit rate                    : 192 kb/s
    Channel(s)                  : 2 channels
    Channel layout              : L R
    Sampling rate               : 48.0 kHz
    Frame rate                  : 31.250 FPS (1536 SPF)
    Compression mode            : Lossy
    Stream size                 : 111 MiB (1%)
    Language                    : English
    Service kind                : Complete Main
    Default                     : No
    Forced                      : No
    Original source medium      : Blu-ray

    Audio #3
    ID                          : 4
    ID in the original source m : 4354 (0x1102)
    Format                      : DTS
    Format/Info                 : Digital Theater Systems
    Codec ID                    : A_DTS
    Duration                    : 1 h 20 min
    Bit rate mode               : Constant
    Bit rate                    : 768 kb/s
    Channel(s)                  : 6 channels
    Channel layout              : C L R Ls Rs LFE
    Sampling rate               : 48.0 kHz
    Frame rate                  : 93.750 FPS (512 SPF)
    Bit depth                   : 24 bits
    Compression mode            : Lossy
    Stream size                 : 444 MiB (2%)
    Language                    : Spanish
    Default                     : Yes
    Forced                      : No
    Original source medium      : Blu-ray

    Text
    ID                          : 5
    ID in the original source m : 4609 (0x1201)
    Format                      : PGS
    Muxing mode                 : zlib
    Codec ID                    : S_HDMV/PGS
    Codec ID/Info               : Picture based subtitle format used on BDs/HD-DVDs
    Duration                    : 1 h 14 min
    Bit rate                    : 18.1 kb/s
    Frame rate                  : 0.281 FPS
    Count of elements           : 1255
    Stream size                 : 9.67 MiB (0%)
    Language                    : Spanish
    Default                     : No
    Forced                      : No
    Original source medium      : Blu-ray

    Menu
    00:00:00.000                : en:Capítulo 01
    00:08:41.395                : en:Capítulo 02
    00:15:31.472                : en:Capítulo 03
    00:19:25.622                : en:Capítulo 04
    00:28:35.630                : en:Capítulo 05
    00:31:58.791                : en:Capítulo 06
    00:39:04.216                : en:Capítulo 07
    00:46:35.918                : en:Capítulo 08
    00:53:59.694                : en:Capítulo 09
    00:55:57.562                : en:Capítulo 10
    01:00:57.236                : en:Capítulo 11
    01:04:00.586                : en:Capítulo 12
    01:08:17.051                : en:Capítulo 13
    01:10:07.494                : en:Capítulo 14
    01:12:51.492                : en:Capítulo 15
    01:15:00.954                : en:Capítulo 16

  • Peso: 17.6 GiB

Sinopsis

Inglaterra, siglo XIII. Las fuerzas del mal ejercen su reinado en la Edad Media. Valerosos caballeros se disponen a entrar en desigual batalla, mientras que los atemorizados campesinos se refugian tras los muros del castillo. Todo cambia con la inesperada llegada de un nuevo héroe, provisto de sofisticadas armas, que dice provenir del siglo XX.

Ficha técnica

Video trailer de la película

Enlaces de descarga

Rip de Bluray

Descargar Army of Darkness (1992) REMUX 1080p Latino – CMHDD


Aportes de DPeliculasHDmega la pass es:dpeliculashdmega.org Aportes de CinemaniaHD la pass es:cinemaniahdd.com Aportes recientes:cinemaniahdd.net
Guardado en : Comedia , Fantasía , Terror

Películas relacionadas

  • Pobres criaturas (2023) WEB-DL 4K UHD HDR Latino

    Pobres criaturas (2023) WEB-DL 4K UHD HDR Latino

    2023
    Pobres criaturas (2023) WEB-DL 4K UHD HDR Latino

    2h 21m 2023

    Descargar Pobres criaturas (2023) WEB-DL 4K UHD HDR Latino. Bella Baxter es una joven revivida por el...

    Director: Yorgos Lanthimos

    Género: 4K HDR

    Actores: Zen Joshua Poisson

  • Pobres criaturas (2023) WEB-DL 1080p Latino

    Pobres criaturas (2023) WEB-DL 1080p Latino

    2023
    Pobres criaturas (2023) WEB-DL 1080p Latino

    2h 21m 2023

    Descargar Pobres criaturas (2023) WEB-DL 1080p Latino. Bella Baxter es una joven revivida por el brillante...

    Director: Yorgos Lanthimos

    Género: Ciencia ficción

    Actores: Zen Joshua Poisson

  • Wonka (2023) Full HD 1080p Latino-CMHDD

    Wonka (2023) Full HD 1080p Latino-CMHDD

    2023
    Wonka (2023) Full HD 1080p Latino-CMHDD

    1h 57m 2023

    Descargar Wonka (2023) Full HD 1080p Latino-CMHDD. Basada en el personaje que protagoniza "Charlie y...

    Director: Zoe Morgan

    Género: Comedia

    Actores: Tracy Ifeachor

  • Wonka (2023) 1080p Latino-CMHDD

    Wonka (2023) 1080p Latino-CMHDD

    2023
    Wonka (2023) 1080p Latino-CMHDD

    1h 57m 2023

    Descargar Wonka (2023) 1080p Latino-CMHDD. Basada en el personaje que protagoniza "Charlie y la fábrica...

    Director: Zoe Morgan

    Género: Comedia

    Actores: Tracy Ifeachor

  • Next Goal Wins (2023) 1080p Latino-CMHDD

    Next Goal Wins (2023) 1080p Latino-CMHDD

    2023
    Next Goal Wins (2023) 1080p Latino-CMHDD

    1h 44m 2023

    Descargar Next Goal Wins (2023) 1080p Latino-CMHDD. Drama deportivo que cuenta la historia del entrenador...

    Director: Zack Earl Edwards

    Género: Comedia

    Actores: William Chun

descargar Army of Darkness (1992) REMUX 1080p Latino – CMHDD Full 1080p 1080p gratis, Army of Darkness (1992) REMUX 1080p Latino – CMHDD Full 1080p mega 1 link, Army of Darkness (1992) REMUX 1080p Latino – CMHDD Full 1080p pelicula completa, descargar Army of Darkness (1992) REMUX 1080p Latino – CMHDD Full 1080p gratis en mega.

Army of Darkness (1992) REMUX 1080p Latino – CMHDD pelicula full hd, Army of Darkness (1992) REMUX 1080p Latino – CMHDD mega latino, Army of Darkness (1992) REMUX 1080p Latino – CMHDD 4k latino, Army of Darkness (1992) REMUX 1080p Latino – CMHDD pelicula completa, Army of Darkness (1992) REMUX 1080p Latino – CMHDD descargar gratis, descargar Army of Darkness (1992) REMUX 1080p Latino – CMHDD pelicula latino, Army of Darkness (1992) REMUX 1080p Latino – CMHDD 1 link mega, Army of Darkness (1992) REMUX 1080p Latino – CMHDD 1 link google drive, Army of Darkness (1992) REMUX 1080p Latino – CMHDD hd 1080p latino.
Comentarios 0