×

¿Problemas para descargar con Mozilla, EDGE? Deshabilita la opción "Abrir vinculos en una pestaña nueva" tal como lo muestra ésta imagen.

Armour of God 2 Operación Cóndor (1991) WEB-DL 1080p Latino – CMHDD

85 vistas

Información de Armour of God 2 Operación Cóndor (1991) WEB-DL 1080p Latino – CMHDD

Datos de la película

  • Calidad: WEBDL
  • Audio: Español Latino AC3 2.0 WEB-DL - Ingles AC3 2.0 WEB-DL
  • Subtitulos: Español Latino SRT
  • Resolución: 1920x800p
  • Formato: MKV
  • Codec: H.264
  • Encoder: Dracarys
  • Mediainfo: Clic para Mostrar Datos Ver
  • Format                      : Matroska
    Format version              : Version 4
    File size                   : 9.82 GiB
    Duration                    : 1 h 47 min
    Overall bit rate            : 13.1 Mb/s
    Movie name                  : Armour of God 2 Operación Cóndor (1991) WEB-DL 1080p Latino - CMHDD
    Encoded date                : UTC 2024-01-19 22:19:28
    Writing application         : mkvmerge v47.0.0 ('Black Flag') 64-bit
    Writing library             : libebml v1.3.10 + libmatroska v1.5.2

    Video
    ID                          : 1
    Format                      : AVC
    Format/Info                 : Advanced Video Codec
    Format profile              : High@L4
    Format settings             : CABAC / 4 Ref Frames
    Format settings, CABAC      : Yes
    Format settings, Reference  : 4 frames
    Codec ID                    : V_MPEG4/ISO/AVC
    Duration                    : 1 h 47 min
    Bit rate                    : 12.4 Mb/s
    Width                       : 1 920 pixels
    Height                      : 800 pixels
    Display aspect ratio        : 2.40:1
    Frame rate mode             : Constant
    Frame rate                  : 24.000 FPS
    Color space                 : YUV
    Chroma subsampling          : 4:2:0
    Bit depth                   : 8 bits
    Scan type                   : Progressive
    Bits/(Pixel*Frame)          : 0.337
    Stream size                 : 9.32 GiB (95%)
    Language                    : Spanish
    Default                     : Yes
    Forced                      : Yes
    Color range                 : Limited
    Color primaries             : BT.709
    Transfer characteristics    : BT.709
    Matrix coefficients         : BT.709

    Audio #1
    ID                          : 2
    Format                      : E-AC-3
    Format/Info                 : Enhanced AC-3
    Commercial name             : Dolby Digital Plus
    Codec ID                    : A_EAC3
    Duration                    : 1 h 47 min
    Bit rate mode               : Constant
    Bit rate                    : 224 kb/s
    Channel(s)                  : 2 channels
    Channel layout              : L R
    Sampling rate               : 48.0 kHz
    Frame rate                  : 31.250 FPS (1536 SPF)
    Compression mode            : Lossy
    Stream size                 : 172 MiB (2%)
    Language                    : Spanish
    Service kind                : Complete Main
    Default                     : Yes
    Forced                      : Yes

    Audio #2
    ID                          : 3
    Format                      : E-AC-3
    Format/Info                 : Enhanced AC-3
    Commercial name             : Dolby Digital Plus
    Codec ID                    : A_EAC3
    Duration                    : 1 h 47 min
    Bit rate mode               : Constant
    Bit rate                    : 224 kb/s
    Channel(s)                  : 2 channels
    Channel layout              : L R
    Sampling rate               : 48.0 kHz
    Frame rate                  : 31.250 FPS (1536 SPF)
    Compression mode            : Lossy
    Stream size                 : 172 MiB (2%)
    Language                    : Chinese
    Service kind                : Complete Main
    Default                     : No
    Forced                      : No

    Audio #3
    ID                          : 4
    Format                      : E-AC-3
    Format/Info                 : Enhanced AC-3
    Commercial name             : Dolby Digital Plus
    Codec ID                    : A_EAC3
    Duration                    : 1 h 47 min
    Bit rate mode               : Constant
    Bit rate                    : 224 kb/s
    Channel(s)                  : 2 channels
    Channel layout              : L R
    Sampling rate               : 48.0 kHz
    Frame rate                  : 31.250 FPS (1536 SPF)
    Compression mode            : Lossy
    Stream size                 : 172 MiB (2%)
    Language                    : English
    Service kind                : Complete Main
    Default                     : No
    Forced                      : No

    Text
    ID                          : 5
    Format                      : UTF-8
    Codec ID                    : S_TEXT/UTF8
    Codec ID/Info               : UTF-8 Plain Text
    Duration                    : 1 h 42 min
    Bit rate                    : 48 b/s
    Frame rate                  : 0.173 FPS
    Count of elements           : 1067
    Stream size                 : 36.5 KiB (0%)
    Language                    : Spanish
    Default                     : No
    Forced                      : No

     

  • Peso: 9.82 GiB

Sinopsis

Antes de que terminase la Segunda Guerra Mundial, los nazis escondieron en el desierto del Sáhara el oro que habían robado en diversos países europeos. El general alemán Von Katterling asignó la misión a su ayudante personal y a dieciocho soldados de los que nunca más se supo. Ahora, las Naciones Unidas quieren recuperar el oro para invertirlo en proyectos humanitarios y para lograrlo deciden asignarle la misión a un oriental neutral, Jackie el Cóndor. La misión del Cóndor es clara y precisa: ir al desierto, localizar el oro y recuperarlo.

Ficha técnica

Video trailer de la película

Enlaces de descarga

Rip de Bluray

Descargar Armour of God 2 Operación Cóndor (1991) WEB-DL 1080p Latino – CMHDD




Aportes de DPeliculasHDmega la pass es:dpeliculashdmega.org Aportes de CinemaniaHD la pass es:cinemaniahdd.com Aportes recientes:cinemaniahdd.net
Guardado en : Acción , Aventura , Crimen , Suspenso

Películas relacionadas

descargar Armour of God 2 Operación Cóndor (1991) WEB-DL 1080p Latino – CMHDD WEBDL 1080p gratis, Armour of God 2 Operación Cóndor (1991) WEB-DL 1080p Latino – CMHDD WEBDL mega 1 link, Armour of God 2 Operación Cóndor (1991) WEB-DL 1080p Latino – CMHDD WEBDL pelicula completa, descargar Armour of God 2 Operación Cóndor (1991) WEB-DL 1080p Latino – CMHDD WEBDL gratis en mega.

Armour of God 2 Operación Cóndor (1991) WEB-DL 1080p Latino – CMHDD pelicula full hd, Armour of God 2 Operación Cóndor (1991) WEB-DL 1080p Latino – CMHDD mega latino, Armour of God 2 Operación Cóndor (1991) WEB-DL 1080p Latino – CMHDD 4k latino, Armour of God 2 Operación Cóndor (1991) WEB-DL 1080p Latino – CMHDD pelicula completa, Armour of God 2 Operación Cóndor (1991) WEB-DL 1080p Latino – CMHDD descargar gratis, descargar Armour of God 2 Operación Cóndor (1991) WEB-DL 1080p Latino – CMHDD pelicula latino, Armour of God 2 Operación Cóndor (1991) WEB-DL 1080p Latino – CMHDD 1 link mega, Armour of God 2 Operación Cóndor (1991) WEB-DL 1080p Latino – CMHDD 1 link google drive, Armour of God 2 Operación Cóndor (1991) WEB-DL 1080p Latino – CMHDD hd 1080p latino.
Comentarios 0