×

¿Problemas para descargar con Mozilla, EDGE? Deshabilita la opción "Abrir vinculos en una pestaña nueva" tal como lo muestra ésta imagen.

Armour of God (1986) WEB-DL 1080p Latino – CMHDD

135 vistas

Información de Armour of God (1986) WEB-DL 1080p Latino – CMHDD

Datos de la película

  • Calidad: WEBDL
  • Audio: Se especifica abajo de la Sinopsis
  • Subtitulos: Español Latino SRT
  • Resolución: 19201040p
  • Formato: MKV
  • Codec: H.264
  • Encoder: Dracarys
  • Mediainfo: Clic para Mostrar Datos Ver
  • Format                      : Matroska
    Format version              : Version 4
    File size                   : 6.95 GiB
    Duration                    : 1 h 38 min
    Overall bit rate            : 10.1 Mb/s
    Movie name                  : Armour of God (1986) WEB-DL 1080p Latino - CMHDD
    Encoded date                : UTC 2024-01-19 22:18:29
    Writing application         : mkvmerge v47.0.0 ('Black Flag') 64-bit
    Writing library             : libebml v1.3.10 + libmatroska v1.5.2

    Video
    ID                          : 1
    Format                      : AVC
    Format/Info                 : Advanced Video Codec
    Format profile              : High@L4
    Format settings             : CABAC / 4 Ref Frames
    Format settings, CABAC      : Yes
    Format settings, Reference  : 4 frames
    Codec ID                    : V_MPEG4/ISO/AVC
    Duration                    : 1 h 38 min
    Bit rate                    : 9 640 kb/s
    Width                       : 1 920 pixels
    Height                      : 1 040 pixels
    Display aspect ratio        : 1.85:1
    Frame rate mode             : Constant
    Frame rate                  : 24.000 FPS
    Color space                 : YUV
    Chroma subsampling          : 4:2:0
    Bit depth                   : 8 bits
    Scan type                   : Progressive
    Bits/(Pixel*Frame)          : 0.201
    Stream size                 : 6.64 GiB (96%)
    Language                    : Spanish
    Default                     : Yes
    Forced                      : Yes
    Color range                 : Limited
    Color primaries             : BT.709
    Transfer characteristics    : BT.709
    Matrix coefficients         : BT.709

    Audio #1
    ID                          : 2
    Format                      : E-AC-3
    Format/Info                 : Enhanced AC-3
    Commercial name             : Dolby Digital Plus
    Codec ID                    : A_EAC3
    Duration                    : 1 h 38 min
    Bit rate mode               : Constant
    Bit rate                    : 224 kb/s
    Channel(s)                  : 2 channels
    Channel layout              : L R
    Sampling rate               : 48.0 kHz
    Frame rate                  : 31.250 FPS (1536 SPF)
    Compression mode            : Lossy
    Stream size                 : 158 MiB (2%)
    Language                    : Spanish
    Service kind                : Complete Main
    Default                     : Yes
    Forced                      : Yes

    Audio #2
    ID                          : 3
    Format                      : E-AC-3
    Format/Info                 : Enhanced AC-3
    Commercial name             : Dolby Digital Plus
    Codec ID                    : A_EAC3
    Duration                    : 1 h 38 min
    Bit rate mode               : Constant
    Bit rate                    : 224 kb/s
    Channel(s)                  : 2 channels
    Channel layout              : L R
    Sampling rate               : 48.0 kHz
    Frame rate                  : 31.250 FPS (1536 SPF)
    Compression mode            : Lossy
    Stream size                 : 158 MiB (2%)
    Language                    : Chinese
    Service kind                : Complete Main
    Default                     : No
    Forced                      : No

    Text
    ID                          : 4
    Format                      : UTF-8
    Codec ID                    : S_TEXT/UTF8
    Codec ID/Info               : UTF-8 Plain Text
    Duration                    : 1 h 28 min
    Bit rate                    : 42 b/s
    Frame rate                  : 0.150 FPS
    Count of elements           : 794
    Stream size                 : 27.8 KiB (0%)
    Language                    : Spanish
    Default                     : No
    Forced                      : No

     

  • Peso: 6.95 GiB

Sinopsis

Nadie sabe como es exactamente la Armadura de Dios ni que forma tiene. Según la Biblia, la Armadura de Dios encarna el poder de la justicia que combate el siniestro espíritu del hombre. Diferentes armaduras han aparecido por todo el mundo y todos sus coleccionistas reclaman su autenticidad. Jackie Chan ha estado ayudando a Duke en su continua búsqueda de la armadura: en su última aventura consiguió hacerse con la Espada Sagrada, originaria de los aborígenes africanos. Duke está dispuesto a pagar cualquier precio por ella. Mientras, una banda de terroristas he secuestrado a la novia de Alan y exige la Espada Sagrada como rescate. La hija de Duke, Jackie y Alan se embarcan en un viaje para combatir a los terroristas. La acción está asegurada.

 

 

Latino: E-AC3 2.0  –  Chino: E-AC3 2.0

Ficha técnica

Video trailer de la película

Enlaces de descarga

Rip de Bluray

Descargar Armour of God (1986) WEB-DL 1080p Latino – CMHDD




Aportes de DPeliculasHDmega la pass es:dpeliculashdmega.org Aportes de CinemaniaHD la pass es:cinemaniahdd.com Aportes recientes:cinemaniahdd.net
Guardado en : Acción , Aventura , Comedia

Películas relacionadas

descargar Armour of God (1986) WEB-DL 1080p Latino – CMHDD WEBDL 1080p gratis, Armour of God (1986) WEB-DL 1080p Latino – CMHDD WEBDL mega 1 link, Armour of God (1986) WEB-DL 1080p Latino – CMHDD WEBDL pelicula completa, descargar Armour of God (1986) WEB-DL 1080p Latino – CMHDD WEBDL gratis en mega.

Armour of God (1986) WEB-DL 1080p Latino – CMHDD pelicula full hd, Armour of God (1986) WEB-DL 1080p Latino – CMHDD mega latino, Armour of God (1986) WEB-DL 1080p Latino – CMHDD 4k latino, Armour of God (1986) WEB-DL 1080p Latino – CMHDD pelicula completa, Armour of God (1986) WEB-DL 1080p Latino – CMHDD descargar gratis, descargar Armour of God (1986) WEB-DL 1080p Latino – CMHDD pelicula latino, Armour of God (1986) WEB-DL 1080p Latino – CMHDD 1 link mega, Armour of God (1986) WEB-DL 1080p Latino – CMHDD 1 link google drive, Armour of God (1986) WEB-DL 1080p Latino – CMHDD hd 1080p latino.
Comentarios 0