Armageddon (1998) Full 1080p Latino

1.115 vistas
1 estrella2 estrellas3 estrellas4 estrellas5 estrellas (2 votos, promedio: 5,00 de 5)
Cargando…

Información de Armageddon (1998) Full 1080p Latino

Datos de la película

  • Calidad: Full 1080p
  • Audio: Español Latino AC3 5.1 BLURAY - Ingles DTS 5.1 BLURAY
  • Subtitulos: Español Latino PGS - Ingles PGS
  • Resolución: 1920x1080p
  • Formato: MKV
  • Codec: H.264
  • Encoder: CinefiloCool
  • Mediainfo: Clic para Mostrar Datos Ver
  • Armageddon (1998) Full 1080p Latino (PLACEBO).mkv
    Format                      : Matroska
    Format version              : Version 4
    File size                   : 11.6 GiB
    Duration                    : 2 h 30 min
    Overall bit rate            : 11.1 Mb/s
    Movie name                  : CinemaniaHDD.Net
    Encoded date                : UTC 2019-02-13 02:19:30
    Writing application         : mkvmerge v30.1.0 ('Forever And More') 64-bit
    Writing library             : libebml v1.3.6 + libmatroska v1.4.9

    Video
    ID                          : 1
    Format                      : AVC
    Format/Info                 : Advanced Video Codec
    Format profile              : [email protected]
    Format settings             : CABAC / 4 Ref Frames
    Format settings, CABAC      : Yes
    Format settings, ReFrames   : 4 frames
    Codec ID                    : V_MPEG4/ISO/AVC
    Duration                    : 2 h 30 min
    Bit rate                    : 8 875 kb/s
    Width                       : 1 920 pixels
    Height                      : 1 080 pixels
    Display aspect ratio        : 16:9
    Frame rate mode             : Constant
    Frame rate                  : 23.976 (24000/1001) FPS
    Color space                 : YUV
    Chroma subsampling          : 4:2:0
    Bit depth                   : 8 bits
    Scan type                   : Progressive
    Bits/(Pixel*Frame)          : 0.179
    Stream size                 : 9.35 GiB (80%)
    Title                       : Full HD1080p [Bluray]
    Writing library             : x264 core 157 r2935 545de2f
    Encoding settings           : cabac=1 / ref=4 / deblock=1:0:0 / analyse=0x3:0x133 / me=tesa / subme=11 / psy=1 / psy_rd=1.00:0.00 / mixed_ref=1 / me_range=24 / chroma_me=1 / trellis=2 / 8x8dct=1 / cqm=0 / deadzone=21,11 / fast_pskip=0 / chroma_qp_offset=-2 / threads=34 / lookahead_threads=8 / sliced_threads=0 / nr=0 / decimate=1 / interlaced=0 / bluray_compat=0 / constrained_intra=0 / bframes=16 / b_pyramid=2 / b_adapt=2 / b_bias=0 / direct=3 / weightb=1 / open_gop=0 / weightp=2 / keyint=240 / keyint_min=24 / scenecut=40 / intra_refresh=0 / rc_lookahead=60 / rc=crf / mbtree=1 / crf=20.0 / qcomp=0.60 / qpmin=0 / qpmax=69 / qpstep=4 / vbv_maxrate=62500 / vbv_bufsize=78125 / crf_max=0.0 / nal_hrd=none / filler=0 / ip_ratio=1.40 / aq=1:1.00
    Default                     : Yes
    Forced                      : Yes
    Color range                 : Limited
    Color primaries             : BT.709
    Transfer characteristics    : BT.709
    Matrix coefficients         : BT.709

    Audio #1
    ID                          : 2
    Format                      : AC-3
    Format/Info                 : Audio Coding 3
    Commercial name             : Dolby Digital
    Codec ID                    : A_AC3
    Duration                    : 2 h 30 min
    Bit rate mode               : Constant
    Bit rate                    : 640 kb/s
    Channel(s)                  : 6 channels
    Channel layout              : L R C LFE Ls Rs
    Sampling rate               : 48.0 kHz
    Frame rate                  : 31.250 FPS (1536 SPF)
    Bit depth                   : 16 bits
    Compression mode            : Lossy
    Stream size                 : 690 MiB (6%)
    Title                       : AC3_5.1_Bluray_Esp
    Language                    : Spanish
    Service kind                : Complete Main
    Default                     : Yes
    Forced                      : Yes

    Audio #2
    ID                          : 3
    Format                      : DTS
    Format/Info                 : Digital Theater Systems
    Codec ID                    : A_DTS
    Duration                    : 2 h 30 min
    Bit rate mode               : Constant
    Bit rate                    : 1 509 kb/s
    Channel(s)                  : 6 channels
    Channel layout              : C L R Ls Rs LFE
    Sampling rate               : 48.0 kHz
    Frame rate                  : 93.750 FPS (512 SPF)
    Bit depth                   : 24 bits
    Compression mode            : Lossy
    Stream size                 : 1.59 GiB (14%)
    Title                       : DTS_5.1_Bluray_Eng
    Language                    : English
    Default                     : No
    Forced                      : No

    Text #1
    ID                          : 4
    Format                      : PGS
    Muxing mode                 : zlib
    Codec ID                    : S_HDMV/PGS
    Codec ID/Info               : Picture based subtitle format used on BDs/HD-DVDs
    Duration                    : 1 h 44 min
    Bit rate                    : 356 b/s
    Count of elements           : 32
    Stream size                 : 272 KiB (0%)
    Title                       : Sub_Forzados [PGS]
    Language                    : Spanish
    Default                     : Yes
    Forced                      : Yes

    Text #2
    ID                          : 5
    Format                      : PGS
    Muxing mode                 : zlib
    Codec ID                    : S_HDMV/PGS
    Codec ID/Info               : Picture based subtitle format used on BDs/HD-DVDs
    Duration                    : 2 h 22 min
    Bit rate                    : 34.7 kb/s
    Count of elements           : 3034
    Stream size                 : 35.4 MiB (0%)
    Title                       : Sub_Esp [PGS]
    Language                    : Spanish
    Default                     : No
    Forced                      : No

    Text #3
    ID                          : 6
    Format                      : PGS
    Muxing mode                 : zlib
    Codec ID                    : S_HDMV/PGS
    Codec ID/Info               : Picture based subtitle format used on BDs/HD-DVDs
    Duration                    : 2 h 29 min
    Bit rate                    : 52.2 kb/s
    Count of elements           : 4622
    Stream size                 : 55.8 MiB (0%)
    Title                       : Sub_Eng [PGS]
    Language                    : English
    Default                     : No
    Forced                      : No

    Menu
    00:00:00.000                : :Chapter 1
    00:06:21.256                : :Chapter 2
    00:11:56.299                : :Chapter 3
    00:23:14.602                : :Chapter 4
    00:28:47.059                : :Chapter 5
    00:35:30.587                : :Chapter 6
    00:39:57.520                : :Chapter 7
    00:45:54.919                : :Chapter 8
    00:48:40.709                : :Chapter 9
    00:51:19.535                : :Chapter 10
    00:56:26.925                : :Chapter 11
    00:59:10.839                : :Chapter 12
    01:07:15.323                : :Chapter 13
    01:11:16.647                : :Chapter 14
    01:21:02.816                : :Chapter 15
    01:24:10.629                : :Chapter 16
    01:32:42.682                : :Chapter 17
    01:41:15.194                : :Chapter 18
    01:51:56.084                : :Chapter 19
    01:55:56.158                : :Chapter 20
    01:59:27.535                : :Chapter 21
    02:00:37.272                : :Chapter 22
    02:05:21.431                : :Chapter 23
    02:08:14.562                : :Chapter 24
    02:12:50.838                : :Chapter 25
    02:15:00.342                : :Chapter 26
    02:23:56.044                : :Chapter 27

  • Peso: 11.6 GiB

Sinopsis

Descargar Armageddon (1998) Full 1080p Latino, Mega, Google Drive, Torrent. Un asteroide del tamaño del estado de Tejas apunta directamente hacia la Tierra. En la NASA, tan sólo encuentran una posible solución: enviar a un equipo de astronautas al espacio para que destruya el meteorito antes de que colisione con nuestro planeta. Para ello recurren a Harry S. Stamper, el mayor experto en perforaciones petrolíferas, y a su cualificado equipo de perforadores, para que aterricen en la superficie del asteroide, lo perforen e introduzcan un dispositivo nuclear que al estallar consiga desviar su trayectoria y poder salvar el planeta, evitando así el Armageddon.

Ficha técnica

Video trailer de la película

Enlaces de descarga

Rip de Bluray

Descargar Armageddon (1998) Full 1080p Latino




Aportes de DPeliculasHDmega la pass es:dpeliculashdmega.org Aportes de CinemaniaHD la pass es:cinemaniahdd.com

Películas relacionadas

  • Wolf Warrior 2 (2017) 1080p Latino

    2017
    Wolf Warrior 2 (2017) 1080p Latino

    0.0 2h 6m 2017

    Secuela de la película de acción exitosa "Wolf Warrior" (2015) La operación más peligrosa de las...

    Director: Wu Jing

    Género: Acción

    Actores: Yu Qian

  • The Front Runner (2018) Full 1080p Latino

    2018
    The Front Runner (2018) Full 1080p Latino

    0.0 1h 53m 2018

    Narra la campaña presidencial del senador estadounidense Gary Hart, que tuvo lugar en 1988, momento...

    Director: Jason Reitman

    Género: Drama

    Actores: William Walker

  • Robin Hood orígenes (2018) Full 1080p Latino

    2018
    Robin Hood orígenes (2018) Full 1080p Latino

    0.0 1h 56m 2018

    Cuando el joven Robin Hood (Taron Egerton) regresa a su hogar, endurecido, tras luchar como guerrero...

    Director: Otto Bathurst

    Género: Acción

    Actores: Yasen Atour

Comentarios 0